новый адрес
Ссылка на приватное зеркало всего за 1$. Внимание количество ограничено!!!

iTunes

1+1

iTunes

мы

WEB-DL

1

iTunes

Чернобыль

iTunes

Ральф против интернета

Лицензия

ПШазам

Лицензия

Оно 2

Лицензия

30
pack

Вам бонус

ВАЖНО

!!Акция!!

Alien_RageХит недели

RePack

Resident Evil 21

ИГРА 18+

pack

RePack

jed

!!Акция!!

Alien_Rage

RePack

fifa19

RePack

Assassins Creed: Odyssey

RePack

NEED FOR SPEED™ PAYBACK

3 сезон

9 сезон

Бесстыжие 9 сезон

Все сериалы

все сериалы на PB.wtf

RePack

FAR CRY 5
Ребята, катастрофически не хватает 1900р. для оплаты серверов за Октябрь (всвязи с блокировками трафик упал в 3 раза), 1-2р., выручайте.
  

Чернобыль / Chernobyl / Сезон: 1 / Серии: 1-5 из 5 (Йохан Ренк) [2019, драма, история, BDRemux 1080i] 2xMVO [Amedia, AlexFilm] pb.wtf

Чернобыль через торрент pb.wtf

Качают: 1 [ 0 KB/s ]
Размер: 61.27 GB | Добавлен: 4 мес. 6 д. назад | Торрент скачан:7 раз
Скачать  

05-08-2019 18:22 Чернобыль Скачать торрент  

Чернобыль / Chernobyl Год выпуска: 2019
Страна: Великобритания, США
Жанр: драма, история
Продолжительность: ~01:00:00

Перевод 1: Профессиональный (многоголосый закадровый) | Amedia
Перевод 2: Профессиональный (многоголосый закадровый) | AlexFilm
Субтитры: Русские, английские

Режиссёр: Йохан Ренк / Johan Renck

В ролях: Джаред Харрис, Стеллан Скарсгард, Эмили Уотсон, Джошуа Лис, Росс Армстронг, Фил Барантини, Джесси Бакли, Джеймс Космо, Дэниэл Стоунер, Карл Дейвис

Описание: История об аварии на Чернобыльской АЭС в 1986 году, эвакуации жителей Припяти и ликвидации последствий. «Чернобыль» драматизирует истинную историю одной из худших техногенных катастроф в истории и рассказывает о храбрых мужчинах и женщинах, которые пожертвовали собой, чтобы спасти Европу от невообразимой катастрофы.

Доп. информация: Исходник - Chernobyl 2019 S01 COMPLETE 1080i GBR BluRay AVC LPCM 2.0-OCULAR.
Синхронизация звука Amedia и AlexFilm с исходником выполнены мной. Субтитры из раздачи с кинозала.

rating


Качество: BDRemux 1080i
Контейнер: MKV

Видео: MPEG-4 AVC Video / 19598 kbps / 1080i / 25 fps / 16:9 / High Profile 4.1
Аудио 1: 48 kHz, AC3, 5.1 ch, 448 kbps avg Amedia
Аудио 2: 48 kHz, AC3, 5.1 ch, 384 kbps avg AlexFilm
Аудио 3: 48 kHz DTS 5.1 1509 kbps
01. 1:23:45
02. Пожалуйста, сохраняйте спокойствие
03. Да разверзнется земля!
04. Счастье всего человечества
05. Вечная память
Общее
Уникальный идентификатор : 143409128555928257044791897593679562907 (0x6BE397EF836CA0F9C26060AC4D91C89B)
Полное имя : G:\Series\Chernobyl s01 RGzsRutracker\Chernobyl.s01e01.BDRemux.1080i.RGzsRutracker.mkv
Формат : Matroska
Версия формата : Version 4
Размер файла : 13,1 Гбайт
Продолжительность : 56 м. 17 с.
Режим общего битрейта : Переменный
Общий поток : 33,3 Мбит/сек
Дата кодирования : UTC 2019-08-05 16:28:46
Программа кодирования : mkvmerge v35.0.0 ('All The Love In The World') 64-bit
Библиотека кодирования : libebml v1.3.9 + libmatroska v1.5.2

Видео
Идентификатор : 1
Формат : AVC
Формат/Информация : Advanced Video Codec
Профиль формата : High@L4.1
Настройки формата : CABAC / 4 Ref Frames
Параметр CABAC формата : Да
Параметр RefFrames формата : 4 кадра
Параметр GOP формата : M=3, N=24
Идентификатор кодека : V_MPEG4/ISO/AVC
Продолжительность : 56 м. 17 с.
Вид битрейта : Переменный
Битрейт : 30,9 Мбит/сек
Максимальный битрейт : 35,0 Мбит/сек
Ширина : 1920 пикселей
Высота : 1080 пикселей
Соотношение сторон : 16:9
Режим частоты кадров : Постоянный
Частота кадров : 25,000 кадров/сек
Стандарт вещания : PAL
Цветовое пространство : YUV
Субдискретизация насыщенности : 4:2:0
Битовая глубина : 8 бит
Тип развёртки : MBAFF
Метод сохранения типа развёртки : Чередующиеся поля
Порядок развёртки : Верхнее поле первое
Бит/(Пиксели*Кадры) : 0.596
Размер потока : 12,2 Гбайт (93%)
Default : Да
Forced : Нет
Цветовой диапазон : Limited
Основные цвета : BT.709
Характеристики трансфера : BT.709
Коэффициенты матрицы : BT.709

Аудио #1
Идентификатор : 2
Формат : AC-3
Формат/Информация : Audio Coding 3
Коммерческое название : Dolby Digital
Идентификатор кодека : A_AC3
Продолжительность : 56 м. 17 с.
Вид битрейта : Постоянный
Битрейт : 384 Кбит/сек
Каналы : 6 каналов
ChannelLayout : L R C LFE Ls Rs
Частота : 48,0 КГц
Частота кадров : 31,250 кадров/сек (1536 SPF)
Битовая глубина : 16 бит
Метод сжатия : С потерями
Размер потока : 155 Мбайт (1%)
Заголовок : Amedia
Язык : Russian
ServiceKind/String : Complete Main
Default : Да
Forced : Нет

Аудио #2
Идентификатор : 3
Формат : AC-3
Формат/Информация : Audio Coding 3
Коммерческое название : Dolby Digital
Идентификатор кодека : A_AC3
Продолжительность : 56 м. 17 с.
Вид битрейта : Постоянный
Битрейт : 448 Кбит/сек
Каналы : 6 каналов
ChannelLayout : L R C LFE Ls Rs
Частота : 48,0 КГц
Частота кадров : 31,250 кадров/сек (1536 SPF)
Битовая глубина : 16 бит
Метод сжатия : С потерями
Размер потока : 180 Мбайт (1%)
Заголовок : AlexFilm
Язык : Russian
ServiceKind/String : Complete Main
Default : Нет
Forced : Нет

Аудио #3
Идентификатор : 4
Формат : DTS
Формат/Информация : Digital Theater Systems
Идентификатор кодека : A_DTS
Продолжительность : 56 м. 17 с.
Вид битрейта : Постоянный
Битрейт : 1509 Кбит/сек
Каналы : 6 каналов
ChannelLayout : C L R Ls Rs LFE
Частота : 48,0 КГц
Частота кадров : 93,750 кадра/сек (512 SPF)
Битовая глубина : 16 бит
Метод сжатия : С потерями
Размер потока : 608 Мбайт (5%)
Язык : English
Default : Нет
Forced : Нет

Текст #1
Идентификатор : 5
Формат : UTF-8
Идентификатор кодека : S_TEXT/UTF8
Идентификатор кодека/Информация : UTF-8 Plain Text
Продолжительность : 54 м. 26 с.
Битрейт : 61 бит/сек
ElementCount : 559
Размер потока : 24,6 Кбайт (0%)
Язык : Russian
Default : Да
Forced : Нет

Текст #2
Идентификатор : 6
Формат : UTF-8
Идентификатор кодека : S_TEXT/UTF8
Идентификатор кодека/Информация : UTF-8 Plain Text
Продолжительность : 53 м. 10 с.
Битрейт : 49 бит/сек
ElementCount : 615
Размер потока : 19,1 Кбайт (0%)
Язык : English
Default : Нет
Forced : Нет
pb.wtf



Скачать Чернобыль через торрент http://b.radikal.ru/b24/1905/c6/9c5c669c49cf.png Скачать фильм Чернобыль через торрент бесплантно в хорошем качестве Описание: История об аварии на Чернобыльской АЭС в 1986 году, эвакуации жителей Припяти и ликвидации последствий. «Чернобыль» драматизирует ... 9 10 5
Торрент: Зарегистрирован [2019-08-05 18:22] · скачан: 7 раз
Статус: √ проверено
Размер: 61.27 GB
Как cкачать? Как скачать Чернобыль через торрент | qTorrent

% Раздел Тема Автор DL S | L
Зарубежные сериалы [ 5.21 GB ] Чернобыль / Chernobyl / Сезон: 1 / Серии: 1-5 из 5 [2019 история BDRip] MVO [Amedia] Twi7ter Скачать
61 | 9
R.G.Resident - Сериалы, Видео [ 1.45 GB ] Чернобыль / Chernobyl / Сезон: 1 / Серии: 1-5 из 5 [2019 история WEB-DLRip | КПК ] MVO [Amedia] Cтрана Скачать
6 | 0
Зарубежные сериалы [ 23.29 GB ] Чернобыль / Chernobyl / Сезон: 1 / Серии: 1-5 из 5 [2019 история WEB-DL 1080p] [MVO] killermax2013 Скачать
22 | 0
Зарубежные сериалы [ 23.2 GB ] Чернобыль / Chernobyl / Сезон: 1 / Серии: 1-5 из 5 [2019 история WEB-DL 1080p] [MVO] killermax2013 Скачать
11 | 2
Зарубежные сериалы [ 4.58 GB ] Чернобыль / Chernobyl / Сезон: 1 / Серии: 1-5 из 5 [2019 история WEB-DLRip] [MVO] killermax2013 Скачать
14 | 5
Зарубежные сериалы [ 13.07 GB ] Чернобыль / Chernobyl / Сезон: 1 / Серии: 1-5 из 5 [2019 история WEB-DL 720p] [MVO] killermax2013 Скачать
14 | 2
Зарубежные сериалы [ 4.21 GB ] Чернобыль / Chernobyl / Сезон: 1 / Серии: 1-5 из 5 [2019 история WEB-DLRip] MVO [Amedia] bober100 Скачать
8 | 1

28-11-2019 20:33  

Отключить всю рекламу на сайте

09-09-2019 08:28 Чернобыль Скачать торрент  

фильм полный бред.Слизали сюжеты с наших фильмов о Черноболе -так глупо и ещё полемику развернули что мол это так красиво сделали всё правдоподобно и прочее.Чушь полная даже бутылки с водкой и то неудосужились сделать этикетки настоящие -красной окаймовкой.А то что тут показано никогда небыло таких.Да и поражает тупизм с окнами пластиковыми во всём фильме--Режисёр ау? небыло в 86году окон с ПВХ? да некоторые сюжеты интересны.Но мы это всё уже видели и хроника событий тоже давно восстановлена и описана -Даже почитайте Алексиевич книгу.Чернобольская молитва.Оттуда и списан сценарий.фильм в общем прост и нечего о нём трубить что Это шедевр.pb.wtf



    Дорогой пользователь! Огромная просьба, поблагодарите релизера, оцените раздачу и оставьте свои комментарий, если Вы скачали Чернобыль через торрент бесплатно! Внесите свою лепту в развитие PiratBit!
    Комментировать посты могут только пользователи прошедшие не сложную регистрацию
    Показать сообщения:    

    Чернобыль через торрент
    Скачать бесплатно Чернобыль
    Чернобыль скачать торрент
    Чернобыль смотреть онлайн
    Cкачать фильм Чернобыль бесплатно
    Чернобыль скачать торрент в хорошем качестве
    Чернобыль смотреть онлайн бесплатно в хорошем качестве


    Вы не можете начинать темы
    Вы не можете отвечать на сообщения
    Вы не можете редактировать свои сообщения
    Вы не можете удалять свои сообщения
    Вы не можете голосовать в опросах
    Вы не можете прикреплять файлы к сообщениям
    Вы можете скачивать файлы