Всегда рабочее зеркало без VPN и Proxy просто перед .vidak.icu напиши любое слово или цифру, Пример http://zibx.vidak.icu

Лицензия

MVO

1 сезон

1

1 сезон

iTunes

1 сезон

13

1 сезон

Deluxe

pack

Рекомендуем

Repack

30

ВАЖНО

RePack

MK11

RePack

jed

RePack

fifa19

RePack

RDR2

RePack

NEED FOR SPEED™ PAYBACK

Кинопоиск HD

6 сезон

 Острые козырьки 6 сезон

Все сериалы

все сериалы на PB.wtf

RePack

FAR CRY 5
  
Magnet ссылка

А теперь не смотри / Don't Look Now (Николас Роуг) [1973, Ужасы, триллер, драма, UHD BDRip 2160p] MVO + 2xDVO + 2xAVO pb.wtf

А теперь не смотри через торрент pb.wtf

Размер: 41.91 GB | Добавлен: 3 года назад | Торрент скачан:3 раза
Смотреть онлайн А теперь не смотри | Скачать    Ребята, помогите собрать деньги на оплату серверов!!!

05-08-2019 19:03 А теперь не смотри Скачать торрент  

А теперь не смотри / Don't Look Now««It's utter MADNESS!»»

Год выпуска: 1973
Страна: Великобритания, Италия
Жанр: Ужасы, триллер, драма, детектив
Продолжительность: 01:50:11
Перевод: Профессиональный многоголосый, профессиональный двухголосый, авторский
Субтитры: Русские, английские
Режиссер: Николас Роуг

В ролях:

Джули Кристи (Laura Baxter), Дональд Сазерленд (John Baxter), Хилари Мейсон (Heather), Клелия Матания (Wendy), Массимо Серато (Bishop Barbarrigo), Ренато Скарпа (Inspector Longhi), Джорджо Трестини (Workman), Леопольдо Триесте (Hotel Manager), Дэвид Три (Anthony Babbage), Энн Рай (Mandy Babbage), Николас Сэлтер (Johnny Baxter), Шэрон Уильямс (Christine Baxter)
Описание:
Супруги Лаура и Джон Бэкстер потеряли дочь. Чтобы забыться в собственном горе и, возможно, восстановить хрупкое равновесие в пошатнувшемся браке, Джон соглашается на работу в Венеции. Однако смена декораций для Бэкстеров оказывается временной иллюзией. Венеция, холодная, призрачная и смертоносная, не только не дает облегчения, но и приносит новые страдания и кошмарные загадки...
Рейтинг:

MPAA: R - Лицам до 17 лет обязательно присутствие взрослого
Качество: UHD BDRip 2160p
Формат: MKV
Видео: HEVC HDR, 54.4 Mбит/с, 3840x2076, 24 Кадр/с
Аудио #1: 48 kHz, AC3, 2ch, ~192.00 kbps avg /RUS/ Профессиональный двухголосый, CP-Digital
Аудио #2: 48 kHz, AC3, 2ch, ~192.00 kbps avg /RUS/ Профессиональный двухголосый, Эльром
Аудио #3: 48 kHz, AC3, 2ch, ~192.00 kbps avg /RUS/ Многоголосый закадровый, НТВ
Аудио #4: 48 kHz, AC3, 2ch, ~192.00 kbps avg /RUS/ Одноголосый закадровый, Михалев
Аудио #5: 48 kHz, AC3, 2ch, ~192.00 kbps avg /RUS/ Одноголосый закадровый, Сербин
Аудио #6: 48 kHz, DTS, 2ch, ~768.00 kbps avg /ENG/ Оригинал
Аудио #7: 48 kHz, AC3, 2ch, ~192.00 kbps avg /ENG/ Commentary by director Nicolas Roeg
Навигация по главам: есть

Complete name : D:\Dont.Look.Now.1973.2160p.UHD.BluRay.X265-SHD13.mkv
Format : Matroska
Format version : Version 4
File size : 41.9 GiB
Duration : 1 h 50 min
Overall bit rate : 54.4 Mb/s
Movie name : Dont.Look.Now.1973.2160p.UHD.BluRay.X265-SHD13
Encoded date : UTC 2019-07-30 09:23:11
Writing application : mkvmerge v34.0.0 ('Sight and Seen') 64-bit
Writing library : libebml v1.3.7 + libmatroska v1.5.0
Attachments : poster.png

Video
ID : 1
Format : HEVC
Format/Info : High Efficiency Video Coding
Format profile : Main [email protected]@High
HDR format : SMPTE ST 2086, HDR10 compatible
Codec ID : V_MPEGH/ISO/HEVC
Duration : 1 h 50 min
Bit rate : 52.5 Mb/s
Width : 3 840 pixels
Height : 2 076 pixels
Display aspect ratio : 1.85:1
Frame rate mode : Constant
Frame rate : 24.000 FPS
Color space : YUV
Chroma subsampling : 4:2:0 (Type 2)
Bit depth : 10 bits
Bits/(Pixel*Frame) : 0.274
Stream size : 40.4 GiB (96%)
Title : Dont.Look.Now.1973.2160p.UHD.BluRay.X265-SHD13
Writing library : x265 3.1+8-21db162c8622:[Windows][MSVC 1900][64 bit] 10bit
Encoding settings : cpuid=1111039 / frame-threads=4 / numa-pools=16 / wpp / no-pmode / no-pme / no-psnr / no-ssim / log-level=2 / input-csp=1 / input-res=3840x2076 / interlace=0 / total-frames=158736 / level-idc=51 / high-tier=1 / uhd-bd=0 / ref=4 / no-allow-non-conformance / repeat-headers / annexb / aud / hrd / info / hash=0 / no-temporal-layers / no-open-gop / min-keyint=24 / keyint=240 / gop-lookahead=0 / bframes=4 / b-adapt=2 / b-pyramid / bframe-bias=0 / rc-lookahead=25 / lookahead-slices=4 / scenecut=40 / radl=0 / no-splice / no-intra-refresh / ctu=64 / min-cu-size=8 / rect / no-amp / max-tu-size=32 / tu-inter-depth=1 / tu-intra-depth=1 / limit-tu=0 / rdoq-level=2 / dynamic-rd=0.00 / no-ssim-rd / signhide / no-tskip / nr-intra=0 / nr-inter=0 / no-constrained-intra / no-strong-intra-smoothing / max-merge=3 / limit-refs=3 / limit-modes / me=3 / subme=3 / merange=57 / temporal-mvp / no-hme / weightp / no-weightb / no-analyze-src-pics / deblock=-3:-3 / no-sao / no-sao-non-deblock / rd=4 / no-early-skip / rskip / no-fast-intra / no-tskip-fast / no-cu-lossless / no-b-intra / no-splitrd-skip / rdpenalty=0 / psy-rd=2.00 / psy-rdoq=1.00 / no-rd-refine / no-lossless / cbqpoffs=0 / crqpoffs=0 / rc=crf / crf=19.0 / qcomp=0.60 / qpstep=4 / stats-write=0 / stats-read=0 / vbv-maxrate=160000 / vbv-bufsize=160000 / vbv-init=0.9 / crf-max=0.0 / crf-min=0.0 / ipratio=1.40 / pbratio=1.30 / aq-mode=2 / aq-strength=1.00 / cutree / zone-count=0 / no-strict-cbr / qg-size=32 / no-rc-grain / qpmax=69 / qpmin=0 / no-const-vbv / sar=1 / overscan=0 / videoformat=5 / range=0 / colorprim=9 / transfer=16 / colormatrix=9 / chromaloc=1 / chromaloc-top=2 / chromaloc-bottom=2 / display-window=0 / master-display=G(13250,34500)B(7500,3000)R(34000,16000)WP(15635,16450)L(10000000,1)cll=0,0 / min-luma=0 / max-luma=1023 / log2-max-poc-lsb=8 / vui-timing-info / vui-hrd-info / slices=1 / no-opt-qp-pps / no-opt-ref-list-length-pps / no-multi-pass-opt-rps / scenecut-bias=0.05 / no-opt-cu-delta-qp / no-aq-motion / hdr / hdr-opt / no-dhdr10-opt / no-idr-recovery-sei / analysis-reuse-level=5 / scale-factor=0 / refine-intra=0 / refine-inter=0 / refine-mv=0 / refine-ctu-distortion=0 / no-limit-sao / ctu-info=0 / no-lowpass-dct / refine-analysis-type=0 / copy-pic=1 / max-ausize-factor=1.0 / no-dynamic-refine / no-single-sei / no-hevc-aq / no-svt / no-field / qp-adaptation-range=1.00
Language : Russian
Default : Yes
Forced : No
Color range : Limited
Color primaries : BT.2020
Transfer characteristics : PQ
Matrix coefficients : BT.2020 non-constant
Mastering display color pri : Display P3
Mastering display luminance : min: 0.0001 cd/m2, max: 1000 cd/m2

Audio #1
ID : 2
Format : AC-3
Format/Info : Audio Coding 3
Commercial name : Dolby Digital
Codec ID : A_AC3
Duration : 1 h 50 min
Bit rate mode : Constant
Bit rate : 192 kb/s
Channel(s) : 2 channels
Channel layout : L R
Sampling rate : 48.0 kHz
Frame rate : 31.250 FPS (1536 SPF)
Bit depth : 16 bits
Compression mode : Lossy
Stream size : 151 MiB (0%)
Title : DVO, CP-Digital
Language : Russian
Service kind : Complete Main
Default : Yes
Forced : No

Audio #2
ID : 3
Format : AC-3
Format/Info : Audio Coding 3
Commercial name : Dolby Digital
Codec ID : A_AC3
Duration : 1 h 50 min
Bit rate mode : Constant
Bit rate : 192 kb/s
Channel(s) : 2 channels
Channel layout : L R
Sampling rate : 48.0 kHz
Frame rate : 31.250 FPS (1536 SPF)
Bit depth : 16 bits
Compression mode : Lossy
Stream size : 151 MiB (0%)
Title : DVO, Эльром
Language : Russian
Service kind : Complete Main
Default : No
Forced : No

Audio #3
ID : 4
Format : AC-3
Format/Info : Audio Coding 3
Commercial name : Dolby Digital
Codec ID : A_AC3
Duration : 1 h 50 min
Bit rate mode : Constant
Bit rate : 192 kb/s
Channel(s) : 2 channels
Channel layout : L R
Sampling rate : 48.0 kHz
Frame rate : 31.250 FPS (1536 SPF)
Bit depth : 16 bits
Compression mode : Lossy
Stream size : 151 MiB (0%)
Title : MVO, НТВ
Language : Russian
Service kind : Complete Main
Default : No
Forced : No

Audio #4
ID : 5
Format : AC-3
Format/Info : Audio Coding 3
Commercial name : Dolby Digital
Codec ID : A_AC3
Duration : 1 h 50 min
Bit rate mode : Constant
Bit rate : 192 kb/s
Channel(s) : 2 channels
Channel layout : L R
Sampling rate : 48.0 kHz
Frame rate : 31.250 FPS (1536 SPF)
Bit depth : 16 bits
Compression mode : Lossy
Stream size : 151 MiB (0%)
Title : AVO, Михалев
Language : Russian
Service kind : Complete Main
Default : No
Forced : No

Audio #5
ID : 6
Format : AC-3
Format/Info : Audio Coding 3
Commercial name : Dolby Digital
Codec ID : A_AC3
Duration : 1 h 50 min
Bit rate mode : Constant
Bit rate : 192 kb/s
Channel(s) : 2 channels
Channel layout : L R
Sampling rate : 48.0 kHz
Frame rate : 31.250 FPS (1536 SPF)
Bit depth : 16 bits
Compression mode : Lossy
Stream size : 151 MiB (0%)
Title : AVO, Сербин
Language : Russian
Service kind : Complete Main
Default : No
Forced : No

Audio #6
ID : 7
Format : DTS
Format/Info : Digital Theater Systems
Codec ID : A_DTS
Duration : 1 h 50 min
Bit rate mode : Constant
Bit rate : 768 kb/s
Channel(s) : 2 channels
Channel layout : L R
Sampling rate : 48.0 kHz
Frame rate : 93.750 FPS (512 SPF)
Bit depth : 24 bits
Compression mode : Lossy
Stream size : 606 MiB (1%)
Language : English
Default : No
Forced : No

Audio #7
ID : 8
Format : AC-3
Format/Info : Audio Coding 3
Commercial name : Dolby Digital
Codec ID : A_AC3
Duration : 1 h 50 min
Bit rate mode : Constant
Bit rate : 192 kb/s
Channel(s) : 2 channels
Channel layout : L R
Sampling rate : 48.0 kHz
Frame rate : 31.250 FPS (1536 SPF)
Bit depth : 16 bits
Compression mode : Lossy
Stream size : 151 MiB (0%)
Title : Commentary by director Nicolas Roeg
Language : English
Service kind : Complete Main
Default : No
Forced : No

Text #1
ID : 9
Format : UTF-8
Codec ID : S_TEXT/UTF8
Codec ID/Info : UTF-8 Plain Text
Duration : 1 h 46 min
Bit rate : 55 b/s
Count of elements : 872
Stream size : 43.3 KiB (0%)
Language : Russian
Default : Yes
Forced : No

Text #2
ID : 10
Format : UTF-8
Codec ID : S_TEXT/UTF8
Codec ID/Info : UTF-8 Plain Text
Duration : 1 h 44 min
Bit rate : 32 b/s
Count of elements : 777
Stream size : 25.2 KiB (0%)
Title : FULL
Language : English
Default : No
Forced : No

Text #3
ID : 11
Format : UTF-8
Codec ID : S_TEXT/UTF8
Codec ID/Info : UTF-8 Plain Text
Duration : 1 h 44 min
Bit rate : 35 b/s
Count of elements : 883
Stream size : 27.1 KiB (0%)
Title : SDH
Language : English
Default : No
Forced : No

Menu
00:00:00.000 : en:Chapter 01
00:07:49.167 : en:Chapter 02
00:16:33.000 : en:Chapter 03
00:25:54.792 : en:Chapter 04
00:37:24.083 : en:Chapter 05
00:43:20.958 : en:Chapter 06
00:53:40.917 : en:Chapter 07
00:59:09.250 : en:Chapter 08
01:07:54.167 : en:Chapter 09
01:20:18.958 : en:Chapter 10
01:30:28.417 : en:Chapter 11
01:41:11.250 : en:Chapter 12
pb.wtf



Скачать А теперь не смотри через торрент https://c.radikal.ru/c36/1908/fa/fbb53a127b76.jpg Скачать, смотреть онлайн А теперь не смотри бесплантно в хорошем качестве Описание: Супруги Лаура и Джон Бэкстер потеряли дочь. Чтобы забыться в собственном горе и, возможно, восстановить хрупкое равновесие в ... 10 10 2
Торрент: Зарегистрирован [2019-08-05 19:03] · скачан: 3 раз
Статус: √ проверено
Размер: 41.91 GB
Как cкачать? Как скачать А теперь не смотри через торрент | UTorrent

28-11-2019 20:33  

Отключить вcю реклaмy на сайте

    Дорогой пользователь! Огромная просьба, поблагодарите релизера, оцените раздачу и оставьте свои комментарий, если Вы скачали А теперь не смотри через торрент бесплатно!
    Комментировать посты могут только пользователи прошедшие не сложную регистрацию
    Показать сообщения:    

    А теперь не смотри через торрент
    Скачать бесплатно А теперь не смотри
    А теперь не смотри скачать торрент
    А теперь не смотри смотреть онлайн
    Cкачать фильм А теперь не смотри бесплатно
    А теперь не смотри скачать торрент в хорошем качестве
    А теперь не смотри смотреть онлайн бесплатно в хорошем качестве


    Вы не можете начинать темы
    Вы не можете отвечать на сообщения
    Вы не можете редактировать свои сообщения
    Вы не можете удалять свои сообщения
    Вы не можете голосовать в опросах
    Вы не можете прикреплять файлы к сообщениям
    Вы можете скачивать файлы