новый адрес пиратбит piratbit
Мега распродажа FORZA HORIZON 4 ULTIMATE+ВСЕ DLC+ОНЛАЙН всего за 499р. 349 руб. (супер цена). Внимание количество ограничено!!!

iTunes

1+1

iTunes

мы

iTunes

1

iTunes

Чернобыль

iTunes

Ральф против интернета

Лицензия

ПШазам

Лицензия

Игра престолов

Лицензия

30
pack

ВАЖНО

!!Акция!!

Alien_RageХит недели

RePack

Resident Evil 21

ИГРА 18+

pack

RePack

Metro:Exodus

!!Акция!!

Alien_Rage

RePack

fifa19

RePack

Assassins Creed: Odyssey

RePack

NEED FOR SPEED™ PAYBACK

3 сезон

9 сезон

Бесстыжие 9 сезон

Все сериалы

все сериалы на PB.wtf

RePack

FAR CRY 5
Ребята, катастрофически не хватает 1900р. для оплаты серверов за Октябрь (всвязи с блокировками трафик упал в 3 раза), 1-2р., выручайте.
  

Гори, гори ясно / Brightburn (Дэвид Яровески) [2019, ужасы, фантастика, триллер, драма, WEB-DL 1080p] DUB [iTunes] +MVO [СВ Студия] pb.wtf

Гори, гори ясно через торрент pb.wtf

Раздают: 19 [ 0 KB/s ]
Размер: 3.33 GB | Добавлен: 3 мес. 8 д. назад | Торрент скачан:1545 раз
Скачать  

06-08-2019 00:41 Гори, гори ясно Скачать торрент  

Гори, гори ясно / Brightburn«Imagine What He Could Become»
Год выпуска: 2019
Страна: США
Жанр: ужасы, фантастика, триллер, драма
Продолжительность: 01:30:30
Перевод:

#1: Дублированный | iTunes
#2: Профессиональный (многоголосый закадровый) | СВ Студия

Субтитры: Русские (Forced, full), английские

Режиссер: Дэвид Яровески

rating

В ролях: Элизабет Бэнкс, Джексон А. Данн, Дэвид Денман, Дженнифер Холлэнд, Мэтт Джонс, Мередит Хагнер, Бекки Уолстром, Грегори Алан Уильямс, Стив Эйджи, Эмми Хантер

Описание: Что, если потерпевший крушение на Земле инопланетный ребенок со сверхспособностями вместо того, чтобы стать героем для человечества, окажется чем-то гораздо более зловещим?

Качество: WEB-DL 1080p
Формат: MKV

Видео: MPEG-4 AVC, 1920x796, 4504 Kbit/s, 23.976 fps
Аудио#1: 48 kHz, AC3, 2.0, 192 Kbps | iTunes | RUS |
Аудио#2: 48 kHz, AC3, 2.0, 192 Kbps | СВ Студия | RUS |
Аудио#3: 48 kHz, AC3, 2.0, 384 Kbps | Оригинал | ENG |
скриншот  скриншот  скриншот  скриншот  скриншот  

General
Unique ID : 14411361802823423237942034335227462518 (0xAD786FEAD06C8D31ED3F78316684376)
Complete name : D:Video111Brightburn.2019.WEB-DL.1080p.seleZen.mkv
Format : Matroska
Format version : Version 4
File size : 3.33 GiB
Duration : 1 h 30 min
Overall bit rate : 5 275 kb/s
Movie name : Brightburn 2019 from селезень
Encoded date : UTC 2019-08-06 05:20:14
Writing application : mkvmerge v22.0.0 ('At The End Of The World') 64-bit
Writing library : libebml v1.3.5 + libmatroska v1.4.8

Video
ID : 1
Format : AVC
Format/Info : Advanced Video Codec
Format profile : High@L4
Format settings : CABAC / 5 Ref Frames
Format settings, CABAC : Yes
Format settings, Reference : 5 frames
Codec ID : V_MPEG4/ISO/AVC
Duration : 1 h 30 min
Bit rate : 4 504 kb/s
Width : 1 920 pixels
Height : 796 pixels
Display aspect ratio : 2.40:1
Frame rate mode : Constant
Frame rate : 23.976 (24000/1001) FPS
Color space : YUV
Chroma subsampling : 4:2:0
Bit depth : 8 bits
Scan type : Progressive
Bits/(Pixel*Frame) : 0.123
Stream size : 2.85 GiB (85%)
Language : English
Default : Yes
Forced : No
Color range : Limited
Color primaries : BT.709
Transfer characteristics : BT.709
Matrix coefficients : BT.709

Audio #1
ID : 2
Format : AC-3
Format/Info : Audio Coding 3
Commercial name : Dolby Digital
Codec ID : A_AC3
Duration : 1 h 30 min
Bit rate mode : Constant
Bit rate : 192 kb/s
Channel(s) : 2 channels
Channel layout : L R
Sampling rate : 48.0 kHz
Frame rate : 31.250 FPS (1536 SPF)
Bit depth : 16 bits
Compression mode : Lossy
Stream size : 124 MiB (4%)
Title : Dub
Language : Russian
Service kind : Complete Main
Default : Yes
Forced : Yes

Audio #2
ID : 3
Format : AC-3
Format/Info : Audio Coding 3
Commercial name : Dolby Digital
Codec ID : A_AC3
Duration : 1 h 30 min
Bit rate mode : Constant
Bit rate : 192 kb/s
Channel(s) : 2 channels
Channel layout : L R
Sampling rate : 48.0 kHz
Frame rate : 31.250 FPS (1536 SPF)
Bit depth : 16 bits
Compression mode : Lossy
Stream size : 124 MiB (4%)
Title : MVO [СВ Студия]
Language : Russian
Service kind : Complete Main
Default : No
Forced : No

Audio #3
ID : 4
Format : AC-3
Format/Info : Audio Coding 3
Commercial name : Dolby Digital
Codec ID : A_AC3
Duration : 1 h 30 min
Bit rate mode : Constant
Bit rate : 384 kb/s
Channel(s) : 2 channels
Channel layout : L R
Sampling rate : 48.0 kHz
Frame rate : 31.250 FPS (1536 SPF)
Bit depth : 16 bits
Compression mode : Lossy
Stream size : 249 MiB (7%)
Title : Original
Language : English
Service kind : Complete Main
Default : No
Forced : No

Text #1
ID : 5
Format : UTF-8
Codec ID : S_TEXT/UTF8
Codec ID/Info : UTF-8 Plain Text
Duration : 1 h 29 min
Bit rate : 0 b/s
Count of elements : 10
Stream size : 553 Bytes (0%)
Title : Forced
Language : Russian
Default : Yes
Forced : Yes

Text #2
ID : 6
Format : UTF-8
Codec ID : S_TEXT/UTF8
Codec ID/Info : UTF-8 Plain Text
Duration : 1 h 29 min
Bit rate : 60 b/s
Count of elements : 894
Stream size : 39.7 KiB (0%)
Title : Full
Language : Russian
Default : No
Forced : No

Text #3
ID : 7
Format : UTF-8
Codec ID : S_TEXT/UTF8
Codec ID/Info : UTF-8 Plain Text
Duration : 1 h 27 min
Bit rate : 44 b/s
Count of elements : 1036
Stream size : 28.2 KiB (0%)
Title : Full
Language : English
Default : No
Forced : No

Menu
00:00:00.000 : en:1
00:03:20.700 : en:2
00:07:04.631 : en:3
00:12:30.790 : en:4
00:17:47.064 : en:5
00:24:23.168 : en:6
00:30:28.908 : en:7
00:38:06.782 : en:8
00:43:11.669 : en:9
00:49:25.792 : en:10
00:56:53.531 : en:11
01:00:12.353 : en:12
01:05:22.121 : en:13
01:08:16.086 : en:14
01:12:20.579 : en:15
01:17:28.887 : en:16

pb.wtf



Скачать Гори, гори ясно через торрент http://img16.lostpic.net/2019/08/06/3c9236e801432ac4d01a2c7e169c9ef5.jpg Скачать фильм Гори, гори ясно через торрент бесплантно в хорошем качестве Описание: Что, если потерпевший крушение на Земле инопланетный ребенок со сверхспособностями вместо того, чтобы стать героем для ... 9.6 10 31
Info! Золотая раздача, скачанное не засчитывается.
Торрент: Зарегистрирован [2019-08-06 05:31] · скачан: 1 545 раз
Статус: √ проверено
Размер: 3.33 GB
Как cкачать? Как скачать Гори, гори ясно через торрент | qTorrent

% Раздел Тема Автор DL S | L
Ultra HD (UHD: 2K, 4K, 8K) — видео сверхвысокой чёткости [ 50.87 GB ] Гори гори ясно / Brightburn [2019 UHD Blu-Ray EUR 2160p] DUB [] bober100 Скачать
2 | 0
Фильмы [HD 720p, 1080p] (Хороший звук DUB, MVO) [ 9.77 GB ] Гори гори ясно / Brightburn [2019 BDRip 1080p] DUB [] +MVO [СВ Студия] bober100 Скачать
2 | 0
Фильмы 2019 [DVDrip, WEB-DLRip, HDrip] (DUB, MVO) [ 1.46 GB ] Гори гори ясно / Brightburn [2019 BDRip] - [] Twi7ter Скачать
25 | 3
Фильмы [HD 720p, 1080p] (Хороший звук DUB, MVO) [ 4.34 GB ] Гори гори ясно / Brightburn [2019 BDRip 720p] DUB [] +MVO [СВ Студия] bober100 Скачать
4 | 0
Ultra HD (UHD: 2K, 4K, 8K) — видео сверхвысокой чёткости [ 40.17 GB ] Гори гори ясно / Brightburn [2019 UHD BDRemux 2160p] DUB [] + MVO [СВ Студия] sheker187 Скачать
1 | 0
Фильмы (WEB-DL 720p, 1080p) [ 2.22 GB ] Гори гори ясно / Brightburn [2019 WEB-DL 720p] bober100 Скачать
12 | 0
Ultra HD (UHD: 2K, 4K, 8K) — видео сверхвысокой чёткости [ 10.94 GB ] Гори гори ясно / Brightburn [2019 UHD BDRip 2160p] DUB [] +MVO [СВ Студия] bober100 Скачать
1 | 0


>> Регистрируемся здесь <<






Отзывы и комментарии о схеме читаем и пишем здесь: ---> Отзывы и комментарии о схеме

Новые благодарочки в телеграм довольных пользователей:
скриншот   скриншот   скриншот   скриншот   скриншот

12-08-2019 19:35 Гори, гори ясно Скачать торрент  

фильм бомба,с 1 минут сюжет великолепный,я бы назвал"супемен начало"для любителей комиксов,фантастики,на УРА,оправдал все ожидания"спецэфекты чуть бы получше"но это уже бюджетpb.wtf



18-08-2019 12:10 Гори, гори ясно Скачать торрент  

норм кинчик. мне зашелpb.wtf



18-09-2019 21:21 Гори, гори ясно Скачать торрент  

говнище полное!pb.wtf



    Дорогой пользователь! Огромная просьба, поблагодарите релизера, оцените раздачу и оставьте свои комментарий, если Вы скачали Гори, гори ясно через торрент бесплатно! Внесите свою лепту в развитие PiratBit!
    Комментировать посты могут только пользователи прошедшие не сложную регистрацию
    Показать сообщения:    

    Гори, гори ясно через торрент
    Скачать бесплатно Гори, гори ясно
    Гори, гори ясно скачать торрент
    Гори, гори ясно смотреть онлайн
    Cкачать фильм Гори, гори ясно бесплатно
    Гори, гори ясно скачать торрент в хорошем качестве
    Гори, гори ясно смотреть онлайн бесплатно в хорошем качестве


    Вы не можете начинать темы
    Вы не можете отвечать на сообщения
    Вы не можете редактировать свои сообщения
    Вы не можете удалять свои сообщения
    Вы не можете голосовать в опросах
    Вы не можете прикреплять файлы к сообщениям
    Вы можете скачивать файлы