новый адрес
Ссылка на приватное зеркало всего за 1$. Внимание количество ограничено!!!

iTunes

1+1

iTunes

мы

WEB-DL

1

iTunes

Чернобыль

iTunes

Ральф против интернета

Лицензия

ПШазам

Лицензия

Оно 2

Лицензия

30
pack

Вам бонус

ВАЖНО

!!Акция!!

Alien_RageХит недели

RePack

Resident Evil 21

ИГРА 18+

pack

RePack

jed

!!Акция!!

Alien_Rage

RePack

fifa19

RePack

Assassins Creed: Odyssey

RePack

NEED FOR SPEED™ PAYBACK

3 сезон

9 сезон

Бесстыжие 9 сезон

Все сериалы

все сериалы на PB.wtf

RePack

FAR CRY 5
Ребята, катастрофически не хватает 1900р. для оплаты серверов за Октябрь (всвязи с блокировками трафик упал в 3 раза), 1-2р., выручайте.
  

Гори, гори ясно / Brightburn (Дэвид Яровески) [2019, ужасы, фантастика, триллер, драма, WEB-DLRip-AVC] DUB [iTunes] pb.wtf

Гори, гори ясно через торрент pb.wtf

Раздают: 2 [ 0 KB/s ]
Размер: 1.23 GB | Добавлен: 4 мес. 3 д. назад | Торрент скачан:185 раз
Скачать  

06-08-2019 03:51 Гори, гори ясно Скачать торрент  

Гори, гори ясно / Brightburn«Imagine What He Could Become»
Год выпуска: 2019
Страна: США
Жанр: ужасы, фантастика, триллер, драма
Продолжительность: 01:30:30
Перевод: Дублированный | iTunes
Субтитры: Русские (форс., полные)

Режиссер: Дэвид Яровески

rating

В ролях: Элизабет Бэнкс, Джексон А. Данн, Дэвид Денман, Дженнифер Холлэнд, Мэтт Джонс, Мередит Хагнер, Бекки Уолстром, Грегори Алан Уильямс, Стив Эйджи, Эмми Хантер

Описание: Что, если потерпевший крушение на Земле инопланетный ребенок со сверхспособностями вместо того, чтобы стать героем для человечества, окажется чем-то гораздо более зловещим?

Качество: WEB-DLRip-AVC
Формат: MKV

Видео: 1024x424 (2.40:1), 23,976 fps, x264 ~1 756 kbps avg, 0.169 bit/pixel
Аудио: 48 kHz, AC3 Dolby Digital, 2 (L,R) ch, ~192.00 kbps avg | RUS (iTunes)
скриншот  скриншот  скриншот  скриншот  

Общее
Уникальный идентификатор : 127852801788335478191304266763666783987 (0x602F8DCF42B82C4A68BFF71C0EACFEF3)
Полное имя : F:OlLanDGroupBrightburn.2019.WEB-DLRip(AVC).OlLanDGroup.mkv
Формат : Matroska
Версия формата : Version 4 / Version 2
Размер файла : 1,23 Гбайт
Продолжительность : 1 ч. 30 м.
Общий поток : 1950 Кбит/сек
Название фильма : Brightburn.2019 #TorpedoUK#
Дата кодирования : UTC 2019-08-06 03:20:35
Программа кодирования : mkvmerge v29.0.0 ('Like It Or Not') 64-bit
Библиотека кодирования : libebml v1.3.6 + libmatroska v1.4.9

Видео
Идентификатор : 1
Формат : AVC
Формат/Информация : Advanced Video Codec
Профиль формата : High@L4.1
Параметр CABAC формата : Да
Параметр ReFrames формата : 10 кадров
Идентификатор кодека : V_MPEG4/ISO/AVC
Продолжительность : 1 ч. 30 м.
Битрейт : 1756 Кбит/сек
Ширина : 1024 пикселя
Высота : 424 пикселя
Соотношение сторон : 2,40:1
Режим частоты кадров : Постоянный
Частота кадров : 23,976 (24000/1001) кадра/сек
Цветовое пространство : YUV
Субдискретизация насыщенности : 4:2:0
Битовая глубина : 8 бит
Тип развёртки : Прогрессивная
Бит/(Пиксели*Кадры) : 0.169
Размер потока : 1,11 Гбайт (90%)
Библиотека кодирования : x264 core 146 r2538 121396c
Настройки программы : cabac=1 / ref=10 / deblock=1:-3:-3 / analyse=0x3:0x113 / me=umh / subme=10 / psy=1 / psy_rd=0.98:0.04 / mixed_ref=1 / me_range=48 / chroma_me=1 / trellis=2 / 8x8dct=1 / cqm=0 / deadzone=21,11 / fast_pskip=1 / chroma_qp_offset=-3 / threads=6 / lookahead_threads=1 / sliced_threads=0 / nr=0 / decimate=1 / interlaced=0 / bluray_compat=0 / constrained_intra=0 / bframes=11 / b_pyramid=2 / b_adapt=2 / b_bias=0 / direct=3 / weightb=1 / open_gop=0 / weightp=2 / keyint=240 / keyint_min=23 / scenecut=40 / intra_refresh=0 / rc_lookahead=40 / rc=2pass / mbtree=0 / bitrate=1756 / ratetol=1.0 / qcomp=0.60 / qpmin=0 / qpmax=69 / qpstep=4 / cplxblur=20.0 / qblur=0.5 / vbv_maxrate=50000 / vbv_bufsize=62500 / nal_hrd=none / filler=0 / ip_ratio=1.40 / pb_ratio=1.30 / aq=1:1.00
Язык : English
Default : Да
Forced : Нет

Аудио
Идентификатор : 2
Формат : AC-3
Формат/Информация : Audio Coding 3
Расширение режима : CM (complete main)
Параметр Endianness формата : Big
Идентификатор кодека : A_AC3
Продолжительность : 1 ч. 30 м.
Вид битрейта : Постоянный
Битрейт : 192 Кбит/сек
Каналы : 2 канала
Расположение каналов : Front: L R
Частота : 48,0 КГц
Частота кадров : 31,250 кадров/сек (1536 spf)
Битовая глубина : 16 бит
Метод сжатия : С потерями
Размер потока : 124 Мбайт (10%)
Заголовок : DUB [iTunes]
Язык : Russian
Default : Да
Forced : Нет

Текст #1
Идентификатор : 3
Формат : UTF-8
Идентификатор кодека : S_TEXT/UTF8
Идентификатор кодека/Информация : UTF-8 Plain Text
Продолжительность : 1 ч. 29 м.
Битрейт : 0 бит/сек
Count of elements : 11
Размер потока : 568 байт (0%)
Заголовок : Forced
Язык : Russian
Default : Да
Forced : Нет

Текст #2
Идентификатор : 4
Формат : UTF-8
Идентификатор кодека : S_TEXT/UTF8
Идентификатор кодека/Информация : UTF-8 Plain Text
Продолжительность : 1 ч. 29 м.
Битрейт : 60 бит/сек
Count of elements : 895
Размер потока : 39,8 Кбайт (0%)
Заголовок : Full
Язык : Russian
Default : Нет
Forced : Нет

Меню
00:00:00.000 : en:1
00:03:20.700 : en:2
00:07:04.631 : en:3
00:12:30.790 : en:4
00:17:47.064 : en:5
00:24:23.168 : en:6
00:30:28.908 : en:7
00:38:06.782 : en:8
00:43:11.669 : en:9
00:49:25.792 : en:10
00:56:53.531 : en:11
01:00:12.353 : en:12
01:05:22.121 : en:13
01:08:16.086 : en:14
01:12:20.579 : en:15
01:17:28.887 : en:16

pb.wtf



Скачать Гори, гори ясно через торрент https://i89.fastpic.ru/big/2019/0806/76/817a8a45b5c1be95b5c9f83e26b6c976.jpg Скачать фильм Гори, гори ясно через торрент бесплантно в хорошем качестве Описание: Что, если потерпевший крушение на Земле инопланетный ребенок со сверхспособностями вместо того, чтобы стать героем для ... 10 10 8
Торрент: Зарегистрирован [2019-08-06 03:51] · скачан: 185 раз
Статус: √ проверено
Размер: 1.23 GB
Как cкачать? Как скачать Гори, гори ясно через торрент | qTorrent

% Раздел Тема Автор DL S | L
Ultra HD (UHD: 2K, 4K, 8K) — видео сверхвысокой чёткости [ 50.87 GB ] Гори гори ясно / Brightburn [2019 UHD Blu-Ray EUR 2160p] DUB [] bober100 Скачать
1 | 0
Фильмы [HD 720p, 1080p] (Хороший звук DUB, MVO) [ 9.77 GB ] Гори гори ясно / Brightburn [2019 BDRip 1080p] DUB [] +MVO [СВ Студия] bober100 Скачать
2 | 0
Фильмы 2019 [DVDrip, WEB-DLRip, HDrip] (DUB, MVO) [ 1.46 GB ] Гори гори ясно / Brightburn [2019 BDRip] - [] Twi7ter Скачать
11 | 1
Фильмы [HD 720p, 1080p] (Хороший звук DUB, MVO) [ 4.34 GB ] Гори гори ясно / Brightburn [2019 BDRip 720p] DUB [] +MVO [СВ Студия] bober100 Скачать
2 | 0
Ultra HD (UHD: 2K, 4K, 8K) — видео сверхвысокой чёткости [ 40.17 GB ] Гори гори ясно / Brightburn [2019 UHD BDRemux 2160p] DUB [] + MVO [СВ Студия] sheker187 Скачать
1 | 0
Фильмы (WEB-DL 720p, 1080p) [ 3.33 GB ] Гори гори ясно / Brightburn [2019 WEB-DL 1080p] +MVO [СВ Студия] bober100 Скачать
10 | 0
Фильмы (WEB-DL 720p, 1080p) [ 2.22 GB ] Гори гори ясно / Brightburn [2019 WEB-DL 720p] bober100 Скачать
7 | 0

28-11-2019 20:33  

Отключить всю рекламу на сайте

    Дорогой пользователь! Огромная просьба, поблагодарите релизера, оцените раздачу и оставьте свои комментарий, если Вы скачали Гори, гори ясно через торрент бесплатно! Внесите свою лепту в развитие PiratBit!
    Комментировать посты могут только пользователи прошедшие не сложную регистрацию
    Показать сообщения:    

    Гори, гори ясно через торрент
    Скачать бесплатно Гори, гори ясно
    Гори, гори ясно скачать торрент
    Гори, гори ясно смотреть онлайн
    Cкачать фильм Гори, гори ясно бесплатно
    Гори, гори ясно скачать торрент в хорошем качестве
    Гори, гори ясно смотреть онлайн бесплатно в хорошем качестве


    Вы не можете начинать темы
    Вы не можете отвечать на сообщения
    Вы не можете редактировать свои сообщения
    Вы не можете удалять свои сообщения
    Вы не можете голосовать в опросах
    Вы не можете прикреплять файлы к сообщениям
    Вы можете скачивать файлы