Ссылка на приватное зеркало нашего сайта всего за 1$. Внимание количество ограничено!!!

2 сезон

iTunes

1 сезон

1

iTunes

iTunes

iTunes

1 сезон

RePack

30

ИГРА 18+

pack

ВАЖНО

!!Акция!!

Alien_RageХит недели

RePack

MK11
pack

Забери бонус

RePack

jed

!!Акция!!

Alien_Rage

RePack

fifa19

RePack

Assassins Creed: Odyssey

RePack

NEED FOR SPEED™ PAYBACK

4 сезон

9 сезон

Бесстыжие 9 сезон

Все сериалы

все сериалы на PB.wtf

RePack

FAR CRY 5
  

Страна теней / Shadowlands (Ричард Аттенборо) [1993, драма, мелодрама, биография, BDRip 1080p by msltel] MVO, DVO, AVO pb.wtf

Страна теней через торрент pb.wtf

Размер: 13.44 GB | Добавлен: 1 год 2 мес. назад | Торрент скачан:6 раз
Скачать  

06-08-2019 04:11 Страна теней Скачать торрент  

Название: Страна теней
Оригинальное название: Shadowlands
Год выпуска: 1993
Страна: Великобритания
Жанр: драма, мелодрама, биография
Продолжительность: 02:11:42
Перевод: профессиональный многоголосый, профессиональный двухголосый, авторский

Режиссер: Ричард Аттенборо
В ролях: Энтони Хопкинс, Дебра Уингер, Джулиан Феллоуз, Родди Мод-Роксби, Майкл Дэнисон, Эндрю Сиар, Тим МакМуллан, Джон Вуд (II), Эндрю Хоукинс, Питер Хауэлл, Эдвард Хардуик, Роберт Флеминг, Джеймс Фрейн, Тоби Уитхауз, Дэниэл Гуд, Скотт Хэнди, Чарльз Саймон, Джиллз Олдершоу, Роджер Эштон-Гриффитс, Пэт Кин, Кэрол Пассмор, Ховард Лью Льюис, Джозеф Маццелло, Джон Квентин, Алан Тэлбот, Сильвия Бартер, Джеймс Уотт, Полин Мелвилл, Софи Стэнтон, Уолтер Спэрроу, Джералд Сим, Терри Роули, Норман Берд, Питер Фёрт, Эбигейл Хопкинс, Джулиан Ферт, Карен Льюис, Мэттью Деламер

О фильме: Действие разворачивается в Оксфорде в начале 1950-х годов. Главный герой фильма — Клайв Стейплз Льюис, профессор колледжа Магдалены Оксфордского университета и автор серии книг для детей «Хроники Нарнии», а также многочисленных популярных работ о христианстве. Фильм повествует об трагической любви Льюиса и разведённой американки Джой Дэвидмен Грешам и их короткой супружеской жизни, прерванной её смертью от рака... Экранизация пьесы Уильяма Николсона, основанной на реальных событиях.



Качество: BDRip 1080p
Формат: MKV
Видео: MPEG-4 AVC, 12.5 Mбит/с, 1920x816
Аудио 1: русский, AC3, 192 kbps, 2 ch, 48 kHz [закадровый многоголосый, т/к Культура]
Аудио 2: русский, AC3, 192 kbps, 2 ch, 48 kHz [закадровый двухголосый, HTB+]
Аудио 3: русский, AC3, 192 kbps, 2 ch, 48 kHz [авторский, Антон Алексеев]
Аудио 4: английский, DTS, 1509 kbps, 2 ch, 48 kHz [оригинал]
Главы/чаптеры
Общее
Уникальный идентификатор : 241339167968971635656974139383302048154 (0xB5903BA8260BFE56B6E6BC84718FC99A)
Полное имя : D:\Video\Страна теней.1993.BDRip 1080p by msltel.mkv
Формат : Matroska
Версия формата : Version 4
Размер файла : 13,4 Гбайт
Продолжительность : 2 ч. 11 м.
Общий поток : 14,6 Мбит/сек
Название фильма : Rip by msltel
Дата кодирования : UTC 2019-08-05 12:54:31
Программа кодирования : mkvmerge v8.2.0 ('World of Adventure') 64bit
Библиотека кодирования : libebml v1.3.1 + libmatroska v1.4.2

Видео
Идентификатор : 1
Формат : AVC
Формат/Информация : Advanced Video Codec
Профиль формата : High@L4.1
Настройки формата : CABAC / 4 Ref Frames
Параметр CABAC формата : Да
Параметр RefFrames формата : 4 кадра
Идентификатор кодека : V_MPEG4/ISO/AVC
Продолжительность : 2 ч. 11 м.
Битрейт : 12,5 Мбит/сек
Ширина : 1920 пикселей
Высота : 816 пикселей
Соотношение сторон : 2,35:1
Режим частоты кадров : Постоянный
Частота кадров : 23,976 (24000/1001) кадра/сек
Цветовое пространство : YUV
Субдискретизация насыщенности : 4:2:0
Битовая глубина : 8 бит
Тип развёртки : Прогрессивная
Бит/(Пиксели*Кадры) : 0.333
Размер потока : 11,5 Гбайт (86%)
Библиотека кодирования : x264 core 157 r2935 545de2f
Настройки программы : cabac=1 / ref=4 / deblock=1:-2:-2 / analyse=0x3:0x113 / me=umh / subme=11 / psy=1 / psy_rd=1.00:0.15 / mixed_ref=1 / me_range=32 / chroma_me=1 / trellis=2 / 8x8dct=1 / cqm=0 / deadzone=21,11 / fast_pskip=0 / chroma_qp_offset=-3 / threads=6 / lookahead_threads=1 / sliced_threads=0 / nr=0 / decimate=1 / interlaced=0 / bluray_compat=0 / constrained_intra=0 / bframes=10 / b_pyramid=2 / b_adapt=2 / b_bias=0 / direct=1 / weightb=1 / open_gop=0 / weightp=2 / keyint=230 / keyint_min=23 / scenecut=40 / intra_refresh=0 / rc_lookahead=40 / rc=crf / mbtree=1 / crf=19.0 / qcomp=0.60 / qpmin=0 / qpmax=69 / qpstep=4 / vbv_maxrate=50000 / vbv_bufsize=62500 / crf_max=0.0 / nal_hrd=none / filler=0 / ip_ratio=1.40 / aq=1:1.00
Язык : English
Default : Да
Forced : Нет

Аудио #1
Идентификатор : 2
Формат : AC-3
Формат/Информация : Audio Coding 3
Коммерческое название : Dolby Digital
Идентификатор кодека : A_AC3
Продолжительность : 2 ч. 11 м.
Вид битрейта : Постоянный
Битрейт : 192 Кбит/сек
Каналы : 2 канала
ChannelLayout : L R
Частота : 48,0 КГц
Частота кадров : 31,250 кадров/сек (1536 SPF)
Битовая глубина : 16 бит
Метод сжатия : С потерями
Размер потока : 181 Мбайт (1%)
Заголовок : MVO т/к Культура
Язык : Russian
ServiceKind/String : Complete Main
Default : Да
Forced : Нет

Аудио #2
Идентификатор : 3
Формат : AC-3
Формат/Информация : Audio Coding 3
Коммерческое название : Dolby Digital
Идентификатор кодека : A_AC3
Продолжительность : 2 ч. 11 м.
Вид битрейта : Постоянный
Битрейт : 192 Кбит/сек
Каналы : 2 канала
ChannelLayout : L R
Частота : 48,0 КГц
Частота кадров : 31,250 кадров/сек (1536 SPF)
Битовая глубина : 16 бит
Метод сжатия : С потерями
Размер потока : 181 Мбайт (1%)
Заголовок : DVO HTB+
Язык : Russian
ServiceKind/String : Complete Main
Default : Нет
Forced : Нет

Аудио #3
Идентификатор : 4
Формат : AC-3
Формат/Информация : Audio Coding 3
Коммерческое название : Dolby Digital
Идентификатор кодека : A_AC3
Продолжительность : 2 ч. 11 м.
Вид битрейта : Постоянный
Битрейт : 192 Кбит/сек
Каналы : 2 канала
ChannelLayout : L R
Частота : 48,0 КГц
Частота кадров : 31,250 кадров/сек (1536 SPF)
Битовая глубина : 16 бит
Метод сжатия : С потерями
Размер потока : 181 Мбайт (1%)
Заголовок : Антон Алексеев
Язык : Russian
ServiceKind/String : Complete Main
Default : Нет
Forced : Нет

Аудио #4
Идентификатор : 5
Формат : DTS
Формат/Информация : Digital Theater Systems
Идентификатор кодека : A_DTS
Продолжительность : 2 ч. 11 м.
Вид битрейта : Постоянный
Битрейт : 1509 Кбит/сек
Каналы : 2 канала
ChannelLayout : L R
Частота : 48,0 КГц
Частота кадров : 93,750 кадра/сек (512 SPF)
Битовая глубина : 24 бит
Метод сжатия : С потерями
Размер потока : 1,39 Гбайт (10%)
Заголовок : original
Язык : English
Default : Нет
Forced : Нет

Меню
00:00:00.000 : en:Chapter 1
00:10:00.600 : en:Chapter 2
00:20:01.200 : en:Chapter 3
00:30:01.800 : en:Chapter 4
00:40:02.400 : en:Chapter 5
00:50:03.000 : en:Chapter 6
01:00:03.600 : en:Chapter 7
01:10:04.200 : en:Chapter 8
01:20:04.800 : en:Chapter 9
01:30:05.400 : en:Chapter 10
01:40:06.000 : en:Chapter 11
01:50:06.600 : en:Chapter 12
02:00:07.200 : en:Chapter 13
02:11:17.870 : en:Chapter 14
pb.wtf



Скачать Страна теней через торрент https://a.radikal.ru/a10/1908/8b/893ca687d0ba.jpg Скачать фильм Страна теней через торрент бесплантно в хорошем качестве О фильме: Действие разворачивается в Оксфорде в начале 1950-х годов. Главный герой фильма — Клайв Стейплз Льюис, профессор колледжа ... 5 10 1
Info! Золотая раздача, скачанное не засчитывается.
Торрент: Зарегистрирован [2019-08-06 04:11] · скачан: 6 раз
Статус: √ проверено
Размер: 13.44 GB
Как cкачать? Как скачать Страна теней через торрент | qTorrent

% Раздел Тема Автор DL S | L
Фильмы [HD 720p, 1080p] (Хороший звук DUB, MVO) [ 4.5 GB ] Страна теней / Shadowlands [1993 биография BDRip 720p by msltel] MVO DVO AVO msltel Скачать
1 | 0
Фильмы (WEB-DL 720p, 1080p) [ 4.54 GB ] Страна теней / Shadowlands [1993 Мело биография WEB-DLRip 720p от KORSAR] [2xMVO + DVO+ AVO] filbi1976 Скачать
1 | 0

28-11-2019 20:33  

Отключить всю рекламу на сайте

    Дорогой пользователь! Огромная просьба, поблагодарите релизера, оцените раздачу и оставьте свои комментарий, если Вы скачали Страна теней через торрент бесплатно! Внесите свою лепту в развитие PiratBit!
    Комментировать посты могут только пользователи прошедшие не сложную регистрацию
    Показать сообщения:    

    Страна теней через торрент
    Скачать бесплатно Страна теней
    Страна теней скачать торрент
    Страна теней смотреть онлайн
    Cкачать фильм Страна теней бесплатно
    Страна теней скачать торрент в хорошем качестве
    Страна теней смотреть онлайн бесплатно в хорошем качестве


    Вы не можете начинать темы
    Вы не можете отвечать на сообщения
    Вы не можете редактировать свои сообщения
    Вы не можете удалять свои сообщения
    Вы не можете голосовать в опросах
    Вы не можете прикреплять файлы к сообщениям
    Вы можете скачивать файлы