Ссылка на приватное зеркало нашего сайта всего за 1$. Внимание количество ограничено!!!

2 сезон

iTunes

iTunes

1

iTunes

iTunes

iTunes

WEBRip

iTunes

30
pack

Новость дня

ВАЖНО

!!Акция!!

Alien_RageХит недели

RePack

Horizon Zero Dawn

ИГРА 18+

pack

RePack

jed

!!Акция!!

Alien_Rage

RePack

fifa19

RePack

Assassins Creed: Odyssey

RePack

NEED FOR SPEED™ PAYBACK

4 сезон

9 сезон

Бесстыжие 9 сезон

Все сериалы

все сериалы на PB.wtf

RePack

FAR CRY 5
  

Лучшие враги / The Best of Enemies (Робин Бисселл) [2019, Драма, биография, история, BDRip 1080p] MVO [iTunes] pb.wtf

Лучшие враги через торрент pb.wtf

Размер: 15.7 GB | Добавлен: 1 год 1 мес. назад | Торрент скачан:87 раз
Скачать  

06-08-2019 06:03 Лучшие враги Скачать торрент  

Лучшие враги / The Best of Enemies
Год выпуска: 2019
Страна: США
Жанр: Драма, биография, история
Продолжительность: 02:13:47
Перевод: Профессиональный многоголосый | iTunes
Субтитры: Русские (Forced, full), английские

Режиссер: Робин Бисселл

rating

В ролях: Тараджи П. Хенсон, Сэм Рокуэлл, Бабу Сизей, Ник Сирси, Уэс Бентли, Энн Хеч, Брюс МакГилл, Джон Галлахер мл., Ник Ковальчук, Гилберт Гленн Браун

Описание: История о невероятной дружбе между чернокожей правозащитницей Энн Атуотер и членом Ку-клукс-клана Клэйборном Эллисом. Они были ожесточёнными противниками, пока не попали в один комитет по решению расового разделения в школе. Давних врагов объединяет забота о будущем своих детей...

Качество: BDRip 1080p
Формат: MKV

Видео: MPEG-4 AVC, 1920x800, 15.8 Mbit/s, 23.976 fps
Аудио#1: 48 kHz, AC3, 5.1, 384 Kbps | iTunes | RUS |
Аудио#2: 48 kHz, AC3, 5.1, 640 Kbps | Оригинал | ENG |
скриншот  скриншот  скриншот  скриншот  скриншот  

General
Unique ID : 208210856525443163535725697909624262209 (0x9CA3F3CC168AA2ACFA96B76E5A41CE41)
Complete name : D:Video111The.Best.of.Enemies.2019.BDRip.1080p.seleZen.mkv
Format : Matroska
Format version : Version 4
File size : 15.7 GiB
Duration : 2 h 13 min
Overall bit rate : 16.8 Mb/s
Movie name : The Best of Enemies 2019 from селезень
Encoded date : UTC 2019-08-06 05:46:27
Writing application : mkvmerge v22.0.0 ('At The End Of The World') 64-bit
Writing library : libebml v1.3.5 + libmatroska v1.4.8

Video
ID : 1
Format : AVC
Format/Info : Advanced Video Codec
Format profile : High@L4.1
Format settings : CABAC / 5 Ref Frames
Format settings, CABAC : Yes
Format settings, Reference : 5 frames
Codec ID : V_MPEG4/ISO/AVC
Duration : 2 h 13 min
Bit rate : 15.8 Mb/s
Width : 1 920 pixels
Height : 800 pixels
Display aspect ratio : 2.40:1
Frame rate mode : Constant
Frame rate : 23.976 (24000/1001) FPS
Color space : YUV
Chroma subsampling : 4:2:0
Bit depth : 8 bits
Scan type : Progressive
Bits/(Pixel*Frame) : 0.428
Stream size : 14.7 GiB (94%)
Title : playHD
Writing library : x264 core 157 r2867+103 0d6443f t_mod_Custom_2 [8-bit@all X86_64]
Encoding settings : cabac=1 / ref=5 / deblock=1:-3:-3 / analyse=0x3:0x133 / me=umh / subme=10 / psy=1 / fade_compensate=0.00 / psy_rd=1.00:0.00 / mixed_ref=1 / me_range=48 / chroma_me=1 / trellis=2 / 8x8dct=1 / cqm=0 / deadzone=21,11 / fast_pskip=0 / chroma_qp_offset=-2 / threads=24 / lookahead_threads=4 / sliced_threads=0 / nr=0 / decimate=0 / interlaced=0 / bluray_compat=0 / constrained_intra=0 / fgo=0 / bframes=7 / b_pyramid=2 / b_adapt=2 / b_bias=0 / direct=3 / weightb=1 / open_gop=0 / weightp=2 / keyint=250 / keyint_min=23 / scenecut=40 / intra_refresh=0 / rc_lookahead=60 / rc=crf / mbtree=0 / crf=15.1000 / qcomp=0.60 / qpmin=0:0:0 / qpmax=69:69:69 / qpstep=4 / vbv_maxrate=62500 / vbv_bufsize=78125 / crf_max=0.0 / nal_hrd=none / filler=0 / ip_ratio=1.35 / pb_ratio=1.25 / aq=3:0.80 / aq-sensitivity=10.00 / aq-factor=1.00:1.00:1.00 / aq2=0 / aq3=0 / zones=8111,8350,crf=14/8907,9026,crf=13.5/14150,14244,crf=14/18738,18934,crf=14/19045,19191,crf=14/27937,28023,crf=13.5/31158,31874,crf=14/38287,38325,crf=12.3/38586,38635,crf=13.5/57944,58063,crf=12.3/58089,58517,crf=13.5/58691,59342,crf=14/73022,73870,crf=13.5/84494,84727,crf=13.5/89763,90230,crf=14/90724,90786,crf=14/97411,97492,crf=14/98819,99557,crf=13.5/108424,108874,crf=14/115267,115846,crf=14/116798,116914,crf=13.5/127325,127538,crf=14/134647,134931,crf=14/127325,127538,crf=14/134647,134931,crf=14/127325,127538,crf=14/134647,134931,crf=14/127325,127538,crf=14/134647,134931,crf=14
Language : English
Default : Yes
Forced : No

Audio #1
ID : 2
Format : AC-3
Format/Info : Audio Coding 3
Commercial name : Dolby Digital
Codec ID : A_AC3
Duration : 2 h 13 min
Bit rate mode : Constant
Bit rate : 384 kb/s
Channel(s) : 6 channels
Channel layout : L R C LFE Ls Rs
Sampling rate : 48.0 kHz
Frame rate : 31.250 FPS (1536 SPF)
Bit depth : 16 bits
Compression mode : Lossy
Stream size : 367 MiB (2%)
Title : iTunes
Language : Russian
Service kind : Complete Main
Default : Yes
Forced : Yes

Audio #2
ID : 3
Format : AC-3
Format/Info : Audio Coding 3
Commercial name : Dolby Digital
Codec ID : A_AC3
Duration : 2 h 13 min
Bit rate mode : Constant
Bit rate : 640 kb/s
Channel(s) : 6 channels
Channel layout : L R C LFE Ls Rs
Sampling rate : 48.0 kHz
Frame rate : 31.250 FPS (1536 SPF)
Bit depth : 16 bits
Compression mode : Lossy
Stream size : 612 MiB (4%)
Title : Original
Language : English
Service kind : Complete Main
Default : No
Forced : No

Text #1
ID : 4
Format : UTF-8
Codec ID : S_TEXT/UTF8
Codec ID/Info : UTF-8 Plain Text
Duration : 44 min 38 s
Bit rate : 0 b/s
Count of elements : 2
Stream size : 68.0 Bytes (0%)
Title : Forced
Language : Russian
Default : Yes
Forced : Yes

Text #2
ID : 5
Format : UTF-8
Codec ID : S_TEXT/UTF8
Codec ID/Info : UTF-8 Plain Text
Duration : 2 h 8 min
Bit rate : 90 b/s
Count of elements : 1578
Stream size : 85.3 KiB (0%)
Title : Full
Language : Russian
Default : No
Forced : No

Text #3
ID : 6
Format : UTF-8
Codec ID : S_TEXT/UTF8
Codec ID/Info : UTF-8 Plain Text
Duration : 2 h 5 min
Bit rate : 59 b/s
Count of elements : 1578
Stream size : 54.5 KiB (0%)
Title : Full
Language : English
Default : No
Forced : No

Text #4
ID : 7
Format : UTF-8
Codec ID : S_TEXT/UTF8
Codec ID/Info : UTF-8 Plain Text
Duration : 2 h 6 min
Bit rate : 63 b/s
Count of elements : 1725
Stream size : 58.4 KiB (0%)
Title : SDH
Language : English
Default : No
Forced : No

Menu
00:00:00.000 : en:00:00:00.000
00:04:28.393 : en:00:04:28.393
00:10:38.388 : en:00:10:38.388
00:15:57.915 : en:00:15:57.915
00:18:57.386 : en:00:18:57.386
00:25:12.219 : en:00:25:12.219
00:32:07.759 : en:00:32:07.759
00:40:08.990 : en:00:40:08.990
00:46:43.426 : en:00:46:43.426
00:52:23.724 : en:00:52:23.724
00:57:22.105 : en:00:57:22.105
01:03:12.998 : en:01:03:12.998
01:13:21.939 : en:01:13:21.939
01:22:00.290 : en:01:22:00.290
01:28:30.472 : en:01:28:30.472
01:35:46.658 : en:01:35:46.658
01:43:12.770 : en:01:43:12.770
01:51:25.721 : en:01:51:25.721
01:56:47.959 : en:01:56:47.959
02:04:38.471 : en:02:04:38.471

pb.wtf



Скачать Лучшие враги через торрент https://b.radikal.ru/b18/1908/fe/4bcf6a494513.jpg Скачать фильм Лучшие враги через торрент бесплантно в хорошем качестве Описание: История о невероятной дружбе между чернокожей правозащитницей Энн Атуотер и членом Ку-клукс-клана Клэйборном Эллисом. Они были ... 10 10 7
Торрент: Зарегистрирован [2019-08-06 06:03] · скачан: 87 раз
Статус: √ проверено
Размер: 15.7 GB
Как cкачать? Как скачать Лучшие враги через торрент | qTorrent

% Раздел Тема Автор DL S | L
Фильмы 2019-2020 [DVDrip, WEB-DLRip, HDrip] (DUB, MVO) [ 2.62 GB ] Лучшие враги / The Best of Enemies [2019 биография история BDRip-AVC] 2xMVO [ HDRezka Studio] bober100 Скачать
1 | 0
Фильмы 2019-2020 [DVDrip, WEB-DLRip, HDrip] (DUB, MVO) [ 796 MB ] Лучшие враги / The Best of Enemies [2019 биография история HDRip многоголосый ""] coc900 Скачать
1 | 0
Фильмы (Blu-ray, BD-Remux, HDDVD) [ 35.78 GB ] Лучшие враги / The Best of Enemies [2019 биография история BD Remux 1080p] MVO bober100 Скачать
1 | 0
Фильмы 2019-2020 [DVDrip, WEB-DLRip, HDrip] (DUB, MVO) [ 1.45 GB ] Лучшие враги / The Best of Enemies [2019 биография история BDRip-AVC] MVO - ExKinoRay Enigma2010 Скачать
24 | 2
Фильмы 2019-2020 [DVDrip, WEB-DLRip, HDrip] (DUB, MVO) [ 1.46 GB ] Лучшие враги / The Best of Enemies [2019 биография история BDRip] MVO bober100 Скачать
3 | 0
Фильмы 2019-2020 [DVDrip, WEB-DLRip, HDrip] (DUB, MVO) [ 2.12 GB ] Лучшие враги / The Best of Enemies [2019 биография история BDRip] MVO bober100 Скачать
1 | 0
T Фильмы (WEB-DL 720p, 1080p) [ 4.81 GB ] Лучшие враги / The Best of Enemies [2019 биография история WEB-DL 1080p] MVO [HDRezka Studio] - ExKinoRay Enigma2010 Скачать
7 | 0

28-11-2019 20:33  

Отключить всю рекламу на сайте

    Дорогой пользователь! Огромная просьба, поблагодарите релизера, оцените раздачу и оставьте свои комментарий, если Вы скачали Лучшие враги через торрент бесплатно! Внесите свою лепту в развитие PiratBit!
    Комментировать посты могут только пользователи прошедшие не сложную регистрацию
    Показать сообщения:    

    Лучшие враги через торрент
    Скачать бесплатно Лучшие враги
    Лучшие враги скачать торрент
    Лучшие враги смотреть онлайн
    Cкачать фильм Лучшие враги бесплатно
    Лучшие враги скачать торрент в хорошем качестве
    Лучшие враги смотреть онлайн бесплатно в хорошем качестве


    Вы не можете начинать темы
    Вы не можете отвечать на сообщения
    Вы не можете редактировать свои сообщения
    Вы не можете удалять свои сообщения
    Вы не можете голосовать в опросах
    Вы не можете прикреплять файлы к сообщениям
    Вы можете скачивать файлы