2 сезон

iTunes

MVO

1

2 сезон

iTunes

iTunes

1 сезон

RePack

30

Новинка

ВАЖНО

ИГРА 18+

pack

RePack

MK11
pack

Легкие деньги

RePack

jed

RePack

fifa19

RePack

RDR2

RePack

NEED FOR SPEED™ PAYBACK

4 сезон

9 сезон

Бесстыжие 9 сезон

Все сериалы

все сериалы на PB.wtf

RePack

FAR CRY 5

Anonymous, добрый день, мы не успеваем собрать деньги на оплату серверов за декабрь и январь, помогите нам пожалуйста в это трудное время. В качестве благодарности мы отключим Вам всю рекламу на сайте (укажите свой ник в строку Ваше имя)!

×
  
Magnet ссылка

IMAX: Космическая станция / IMAX: Space Station (Тони Майерс) [2002, документальный, космос, UHD BDRemux 2160p] AVO [А. Дасевич] pb.wtf

IMAX: Космическая станция через торрент pb.wtf

Размер: 19.26 GB | Добавлен: 1 год 5 мес. назад | Торрент скачан:4 раза
Скачать  

06-08-2019 13:17 IMAX: Космическая станция Скачать торрент  

IMAX: Космическая станция / IMAX: Space Station««A Select Few Have Been Aboard... Now It's Your Turn!»»

Год выпуска: 2002
Страна: Канада, США
Жанр: документальный, космос
Продолжительность: 00:47:11
Перевод: Авторский | А. Дасевич
Субтитры: Русские, английские, испанские, французские, немецкие
Режиссер: Тони Майерс
В ролях:

Том Круз (рассказчик, озвучка), Джеймс Арнольд (играет самого себя), Майкл Дж. Блумфилд (играет самого себя (Pilot, STS-97)), Роберт Д. Кабана (играет самого себя (Commander, STS-88)), Лерой Чао (играет самого себя), Кеннет Д. Кокрелл (играет самого себя), Роберт Л. Карбим мл. (играет самого себя), Брайан Даффи (играет самого себя (Commander, STS-92)), Марк Гарно (играет самого себя (Mission Specialist, STS-97)), Майкл Л. Гернхард (играет самого себя (Mission Specialist, STS-104)), Юрий Павлович Гидзенко (играет самого себя (Soyuz Commander, Expedition One)), Умберто Гуидони (играет самого себя)
Описание:
Зрители путешествуют на околоземной орбите по Международной космической стан­ции - масштабному космическому проекту 21-го века. 16 стран, включая Россию, приняли участие в создании этой космической лаборатории.
Рейтинг:

Качество: UHD BDRemux 2160p
Формат: MKV
Видео: HEVC HDR, 47.5 Mбит/с, 3840x2160, 23.976 кадр/с
Аудио #1: 48 kHz, DTS-HD MA, 6ch, ~4119.00 kbps avg /RUS/ Авторский одноголосый, А. Дасевич
Аудио #2: 48 kHz, DTS-HD MA, 6ch, ~4726.00 kbps avg /ENG/ Оригинал
Аудио #3: 48 kHz, DTS-HD MA, 2ch, ~1993.00 kbps avg /ENG/ Commentary
Навигация по главам: есть

Complete name : E:\Space.Station.2002.2160p.UHD.BluRay.HEVC.DTS-SHD13.mkv
Format : Matroska
Format version : Version 4
File size : 19.3 GiB
Duration : 47 min 10 s
Overall bit rate mode : Variable
Overall bit rate : 58.4 Mb/s
Movie name : Space.Station.2002.2160p.UHD.BluRay.HEVC.DTS-SHD13
Encoded date : UTC 2019-08-06 11:40:14
Writing application : mkvmerge v34.0.0 ('Sight and Seen') 64-bit
Writing library : libebml v1.3.7 + libmatroska v1.5.0
Attachments : poster.png

Video
ID : 1
Format : HEVC
Format/Info : High Efficiency Video Coding
Format profile : Main 10@L5.1@High
HDR format : SMPTE ST 2086, HDR10 compatible
Codec ID : V_MPEGH/ISO/HEVC
Duration : 47 min 10 s
Bit rate : 47.5 Mb/s
Width : 3 840 pixels
Height : 2 160 pixels
Display aspect ratio : 16:9
Frame rate mode : Constant
Frame rate : 23.976 (24000/1001) FPS
Color space : YUV
Chroma subsampling : 4:2:0 (Type 2)
Bit depth : 10 bits
Bits/(Pixel*Frame) : 0.239
Stream size : 15.7 GiB (81%)
Title : Space.Station.2002.2160p.UHD.BluRay.HEVC.DTS-SHD13
Writing library : ATEME Titan File 3.9.4 (4.9.4.6)
Language : Russian
Default : Yes
Forced : No
Color range : Limited
Color primaries : BT.2020
Transfer characteristics : PQ
Matrix coefficients : BT.2020 non-constant
Mastering display color pri : Display P3
Mastering display luminance : min: 0.0050 cd/m2, max: 1000 cd/m2
Maximum Content Light Level : 1000 cd/m2
Maximum Frame-Average Light : 300 cd/m2

Audio #1
ID : 2
Format : DTS XLL
Format/Info : Digital Theater Systems
Commercial name : DTS-HD Master Audio
Codec ID : A_DTS
Duration : 47 min 10 s
Bit rate mode : Variable
Bit rate : 4 119 kb/s
Channel(s) : 6 channels
Channel layout : C L R Ls Rs LFE
Sampling rate : 48.0 kHz
Frame rate : 93.750 FPS (512 SPF)
Bit depth : 24 bits
Compression mode : Lossless
Delay relative to video : 3 ms
Stream size : 1.36 GiB (7%)
Title : AVO, А. Дасевич
Language : Russian
Default : Yes
Forced : No

Audio #2
ID : 3
Format : DTS XLL
Format/Info : Digital Theater Systems
Commercial name : DTS-HD Master Audio
Codec ID : A_DTS
Duration : 47 min 10 s
Bit rate mode : Variable
Bit rate : 4 726 kb/s
Channel(s) : 6 channels
Channel layout : C L R Ls Rs LFE
Sampling rate : 48.0 kHz
Frame rate : 93.750 FPS (512 SPF)
Bit depth : 24 bits
Compression mode : Lossless
Stream size : 1.56 GiB (8%)
Language : English
Default : No
Forced : No

Audio #3
ID : 4
Format : DTS XLL
Format/Info : Digital Theater Systems
Commercial name : DTS-HD Master Audio
Codec ID : A_DTS
Duration : 47 min 10 s
Bit rate mode : Variable
Bit rate : 1 993 kb/s
Channel(s) : 2 channels
Channel layout : L R
Sampling rate : 48.0 kHz
Frame rate : 93.750 FPS (512 SPF)
Bit depth : 24 bits
Compression mode : Lossless
Stream size : 673 MiB (3%)
Language : English
Default : No
Forced : No

Text #1
ID : 5
Format : UTF-8
Codec ID : S_TEXT/UTF8
Codec ID/Info : UTF-8 Plain Text
Duration : 45 min 25 s
Bit rate : 117 b/s
Count of elements : 530
Stream size : 39.1 KiB (0%)
Language : Russian
Default : Yes
Forced : No

Text #2
ID : 6
Format : UTF-8
Codec ID : S_TEXT/UTF8
Codec ID/Info : UTF-8 Plain Text
Duration : 43 min 30 s
Bit rate : 130 b/s
Count of elements : 521
Stream size : 41.7 KiB (0%)
Language : Russian
Default : No
Forced : No

Text #3
ID : 7
Format : PGS
Muxing mode : zlib
Codec ID : S_HDMV/PGS
Codec ID/Info : Picture based subtitle format used on BDs/HD-DVDs
Duration : 45 min 24 s
Bit rate : 64.2 kb/s
Count of elements : 1546
Stream size : 20.9 MiB (0%)
Language : English
Default : No
Forced : No

Text #4
ID : 8
Format : PGS
Muxing mode : zlib
Codec ID : S_HDMV/PGS
Codec ID/Info : Picture based subtitle format used on BDs/HD-DVDs
Duration : 43 min 26 s
Bit rate : 67.7 kb/s
Count of elements : 1466
Stream size : 21.0 MiB (0%)
Language : French
Default : No
Forced : No

Text #5
ID : 9
Format : PGS
Muxing mode : zlib
Codec ID : S_HDMV/PGS
Codec ID/Info : Picture based subtitle format used on BDs/HD-DVDs
Duration : 43 min 26 s
Bit rate : 69.2 kb/s
Count of elements : 1548
Stream size : 21.5 MiB (0%)
Language : Spanish
Default : No
Forced : No

Text #6
ID : 10
Format : PGS
Muxing mode : zlib
Codec ID : S_HDMV/PGS
Codec ID/Info : Picture based subtitle format used on BDs/HD-DVDs
Duration : 44 min 58 s
Bit rate : 69.9 kb/s
Count of elements : 1530
Stream size : 22.5 MiB (0%)
Language : German
Default : No
Forced : No

Menu
00:00:00.000 : :Глава 01
00:06:34.894 : :Глава 02
00:14:41.338 : :Глава 03
00:23:25.862 : :Глава 04
00:29:30.268 : :Глава 05
00:45:22.177 : :Глава 06
pb.wtf



Скачать IMAX: Космическая станция через торрент https://b.radikal.ru/b36/1908/49/797297dc819f.png Скачать фильм IMAX: Космическая станция через торрент бесплантно в хорошем качестве Описание: Зрители путешествуют на околоземной орбите по Международной космической стан­ции - масштабному космическому проекту 21-го века. ... 10 10 1
Торрент: Зарегистрирован [2019-08-06 13:17] · скачан: 4 раз
Статус: √ проверено
Размер: 19.26 GB
Как cкачать? Как скачать IMAX: Космическая станция через торрент | UTorrent

% Раздел Тема Автор DL S | L
Космос [ 30.72 GB ] IMAX: Космическая станция / IMAX: Space Station [2002 Документальный космос UHD Blu-ray 2160p] AVO [А. Дасевич] bober100 Скачать
1 | 0
Космос [ 4.37 GB ] IMAX. Космическая станция / IMAX. Space Station [2002 документальный BDRip 1080p от _denis_100 / NNNB] AVO + Original + Sub _denis_100 Скачать
1 | 0

28-11-2019 20:33  

Отключить всю рекламу на сайте

    Дорогой пользователь! Огромная просьба, поблагодарите релизера, оцените раздачу и оставьте свои комментарий, если Вы скачали IMAX: Космическая станция через торрент бесплатно! Внесите свою лепту в развитие PiratBit!
    Комментировать посты могут только пользователи прошедшие не сложную регистрацию
    Показать сообщения:    

    IMAX: Космическая станция через торрент
    Скачать бесплатно IMAX: Космическая станция
    IMAX: Космическая станция скачать торрент
    IMAX: Космическая станция смотреть онлайн
    Cкачать фильм IMAX: Космическая станция бесплатно
    IMAX: Космическая станция скачать торрент в хорошем качестве
    IMAX: Космическая станция смотреть онлайн бесплатно в хорошем качестве


    Вы не можете начинать темы
    Вы не можете отвечать на сообщения
    Вы не можете редактировать свои сообщения
    Вы не можете удалять свои сообщения
    Вы не можете голосовать в опросах
    Вы не можете прикреплять файлы к сообщениям
    Вы можете скачивать файлы