новый адрес
Ссылка на приватное зеркало всего за 1$. Внимание количество ограничено!!!

iTunes

1+1

iTunes

мы

WEB-DL

1

iTunes

Чернобыль

iTunes

Ральф против интернета

Лицензия

ПШазам

Лицензия

Оно 2

Лицензия

30
pack

Вам бонус

ВАЖНО

!!Акция!!

Alien_RageХит недели

RePack

Resident Evil 21

ИГРА 18+

pack

RePack

jed

!!Акция!!

Alien_Rage

RePack

fifa19

RePack

Assassins Creed: Odyssey

RePack

NEED FOR SPEED™ PAYBACK

3 сезон

9 сезон

Бесстыжие 9 сезон

Все сериалы

все сериалы на PB.wtf

RePack

FAR CRY 5
Ребята, катастрофически не хватает 1900р. для оплаты серверов за Октябрь (всвязи с блокировками трафик упал в 3 раза), 1-2р., выручайте.
  

Голем: Начало / The Golem (Дорон Пас, Йоав Пас) [2018, Ужасы, WEB-DLRip-AVC] DUB [iTunes] pb.wtf

Голем: Начало через торрент pb.wtf

Раздают: 5 [ 0 KB/s ]
Размер: 1.46 GB | Добавлен: 4 мес. 5 д. назад | Торрент скачан:265 раз
Скачать  

06-08-2019 14:54 Голем: Начало Скачать торрент  

Голем: Начало / The Golem«Если пробудил древнего бога, будь готов к апокалипсису»
Год выпуска: 2018
Страна: Израиль
Жанр: Ужасы
Продолжительность: 01:34:46
Перевод: Дублированный | iTunes
Субтитры: Отсутствуют

Режиссер: Дорон Пас, Йоав Пас

rating

В ролях: Хани Фюрстенберг, Ишай Голан, Брини Фюрстенберг, Эди Кветнер, Ленни Равич, Ольга Сафронова

Описание: Литва, 1673 год. Селянка Ханна уже семь лет скорбит об умершем сыне и находит утешение в изучении священных еврейских писаний. Когда её деревне начинает угрожать опасность вторжения, Ханна решает провести магический ритуал и создаёт чудовище - голема. Последствия этого неоднозначного поступка коснутся всех местных жителей.

Качество: WEB-DLRip-AVC
Формат: MKV

Видео: 1024x432 (2.40:1), 23,976 fps, x264 ~1 756 kbps avg, 0.169 bit/pixel
Аудио: 48 kHz, AC3 Dolby Digital, 2 (L,R) ch, ~192.00 kbps avg | RUS (iTunes)
скриншот  скриншот  скриншот  скриншот  

Общее
Уникальный идентификатор : 145431780938537678202943310133030864074 (0x6D692465BEC954A922EDB4A0E9FCC4CA)
Полное имя : F:OlLanDGroupThe.Golem.2018.WEB-DLRip(AVC).OlLanDGroup.mkv
Формат : Matroska
Версия формата : Version 4 / Version 2
Размер файла : 1,46 Гбайт
Продолжительность : 1 ч. 34 м.
Общий поток : 2211 Кбит/сек
Название фильма : The Golem 2018 #TorpedoUK#
Дата кодирования : UTC 2019-08-06 14:40:15
Программа кодирования : mkvmerge v29.0.0 ('Like It Or Not') 64-bit
Библиотека кодирования : libebml v1.3.6 + libmatroska v1.4.9

Видео
Идентификатор : 1
Формат : AVC
Формат/Информация : Advanced Video Codec
Профиль формата : High@L4.1
Параметр CABAC формата : Да
Параметр ReFrames формата : 10 кадров
Идентификатор кодека : V_MPEG4/ISO/AVC
Продолжительность : 1 ч. 34 м.
Битрейт : 1829 Кбит/сек
Ширина : 1024 пикселя
Высота : 432 пикселя
Соотношение сторон : 2,40:1
Режим частоты кадров : Постоянный
Частота кадров : 23,976 (24000/1001) кадра/сек
Цветовое пространство : YUV
Субдискретизация насыщенности : 4:2:0
Битовая глубина : 8 бит
Тип развёртки : Прогрессивная
Бит/(Пиксели*Кадры) : 0.172
Размер потока : 1,21 Гбайт (83%)
Библиотека кодирования : x264 core 146 r2538 121396c
Настройки программы : cabac=1 / ref=10 / deblock=1:-2:-3 / analyse=0x3:0x113 / me=umh / subme=10 / psy=1 / psy_rd=0.92:0.09 / mixed_ref=1 / me_range=48 / chroma_me=1 / trellis=2 / 8x8dct=1 / cqm=0 / deadzone=21,11 / fast_pskip=1 / chroma_qp_offset=-3 / threads=6 / lookahead_threads=1 / sliced_threads=0 / nr=0 / decimate=1 / interlaced=0 / bluray_compat=0 / constrained_intra=0 / bframes=11 / b_pyramid=2 / b_adapt=2 / b_bias=0 / direct=3 / weightb=1 / open_gop=0 / weightp=2 / keyint=240 / keyint_min=23 / scenecut=40 / intra_refresh=0 / rc_lookahead=40 / rc=2pass / mbtree=0 / bitrate=1829 / ratetol=1.0 / qcomp=0.60 / qpmin=0 / qpmax=69 / qpstep=4 / cplxblur=20.0 / qblur=0.5 / vbv_maxrate=50000 / vbv_bufsize=62500 / nal_hrd=none / filler=0 / ip_ratio=1.40 / pb_ratio=1.30 / aq=1:1.00
Язык : English
Default : Да
Forced : Нет

Аудио
Идентификатор : 2
Формат : AC-3
Формат/Информация : Audio Coding 3
Расширение режима : CM (complete main)
Параметр Endianness формата : Big
Идентификатор кодека : A_AC3
Продолжительность : 1 ч. 34 м.
Вид битрейта : Постоянный
Битрейт : 384 Кбит/сек
Каналы : 6 каналов
Расположение каналов : Front: L C R, Side: L R, LFE
Частота : 48,0 КГц
Частота кадров : 31,250 кадров/сек (1536 spf)
Битовая глубина : 16 бит
Метод сжатия : С потерями
Размер потока : 260 Мбайт (17%)
Заголовок : DUB [iTunes]
Язык : Russian
Default : Да
Forced : Нет

Меню
00:00:00.000 : en:1
00:03:20.700 : en:2
00:07:04.631 : en:3
00:12:30.790 : en:4
00:17:47.064 : en:5
00:24:23.168 : en:6
00:30:28.908 : en:7
00:38:06.782 : en:8
00:43:11.669 : en:9
00:49:25.792 : en:10
00:56:53.531 : en:11
01:00:12.353 : en:12
01:05:22.121 : en:13
01:08:16.086 : en:14
01:12:20.579 : en:15
01:17:28.887 : en:16

pb.wtf



Скачать Голем: Начало через торрент https://b.radikal.ru/b13/1908/b9/56246ba016ae.jpg Скачать фильм Голем: Начало через торрент бесплантно в хорошем качестве Описание: Литва, 1673 год. Селянка Ханна уже семь лет скорбит об умершем сыне и находит утешение в изучении священных еврейских писаний. ... 10 10 9
Торрент: Зарегистрирован [2019-08-06 14:54] · скачан: 265 раз
Статус: √ проверено
Размер: 1.46 GB
Как cкачать? Как скачать Голем: Начало через торрент | qTorrent

% Раздел Тема Автор DL S | L
Фильмы [HD 720p, 1080p] (Хороший звук DUB, MVO) [ 3.44 GB ] Голем: Начало / The Golem [2018 BDRip 720p] Dub MVO [HDRezka Studio] - ExKinoRay Enigma2010 Скачать
9 | 1
Фильмы [HD 720p, 1080p] (Хороший звук DUB, MVO) [ 7.14 GB ] Голем: Начало / The Golem [2018 BDRip 1080p] bober100 Скачать
5 | 0
Фильмы (Blu-ray, BD-Remux, HDDVD) [ 14.25 GB ] Голем: Начало / The Golem [2018 BD Remux 1080p] bober100 Скачать
1 | 0
Фильмы 2018 [DVDrip, WEB-DLRip, HDrip] (DUB, MVO) [ 1.41 GB ] Голем: Начало / The Golem [2018 BDRip] bober100 Скачать
9 | 0
Фильмы (WEB-DL 720p, 1080p) [ 3.99 GB ] Голем: Начало / The Golem [2018 WEB-DL 1080p] bober100 Скачать
4 | 0
T Фильмы (WEB-DL 720p, 1080p) [ 3.45 GB ] Голем: Начало / The Golem [2018 WEB-DL 1080p] MVO [HDRezka Studio] - ExKinoRay Enigma2010 Скачать
5 | 0
T Фильмы 2018 [DVDrip, WEB-DLRip, HDrip] (DUB, MVO) [ 1.37 GB ] Голем: Начало / The Golem [2018 BDRip] MVO [HDRezka Studio] - ExKinoRay Enigma2010 Скачать
14 | 1

28-11-2019 20:33  

Отключить всю рекламу на сайте

06-08-2019 15:48 Голем: Начало Скачать торрент  

как фильм?pb.wtf



06-08-2019 19:39 Голем: Начало Скачать торрент  

CEPGEIC писал(а):

как фильм?

как земляpb.wtf



07-08-2019 06:33 Голем: Начало Скачать торрент  

Fronton, pb.wtf



07-08-2019 16:52 Голем: Начало Скачать торрент  

зря смотрелpb.wtf



08-08-2019 17:38 Голем: Начало Скачать торрент  

Думал на 3 скрине Машков)) Уже почти скачал )pb.wtf



    Дорогой пользователь! Огромная просьба, поблагодарите релизера, оцените раздачу и оставьте свои комментарий, если Вы скачали Голем: Начало через торрент бесплатно! Внесите свою лепту в развитие PiratBit!
    Комментировать посты могут только пользователи прошедшие не сложную регистрацию
    Показать сообщения:    

    Голем: Начало через торрент
    Скачать бесплатно Голем: Начало
    Голем: Начало скачать торрент
    Голем: Начало смотреть онлайн
    Cкачать фильм Голем: Начало бесплатно
    Голем: Начало скачать торрент в хорошем качестве
    Голем: Начало смотреть онлайн бесплатно в хорошем качестве


    Вы не можете начинать темы
    Вы не можете отвечать на сообщения
    Вы не можете редактировать свои сообщения
    Вы не можете удалять свои сообщения
    Вы не можете голосовать в опросах
    Вы не можете прикреплять файлы к сообщениям
    Вы можете скачивать файлы