новый адрес пиратбит piratbit
Мега распродажа FORZA HORIZON 4 ULTIMATE+ВСЕ DLC+ОНЛАЙН всего за 499р. 349 руб. (супер цена). Внимание количество ограничено!!!

iTunes

1+1

iTunes

мы

iTunes

1

iTunes

Чернобыль

iTunes

Ральф против интернета

Лицензия

ПШазам

Лицензия

Игра престолов

Лицензия

30
pack

ВАЖНО

!!Акция!!

Alien_RageХит недели

RePack

Resident Evil 21

ИГРА 18+

pack

RePack

Metro:Exodus

!!Акция!!

Alien_Rage

RePack

fifa19

RePack

Assassins Creed: Odyssey

RePack

NEED FOR SPEED™ PAYBACK

3 сезон

9 сезон

Бесстыжие 9 сезон

Все сериалы

все сериалы на PB.wtf

RePack

FAR CRY 5
Ребята, катастрофически не хватает 1900р. для оплаты серверов за Октябрь (всвязи с блокировками трафик упал в 3 раза), 1-2р., выручайте.
  

Военно-полевой роман (Петр Тодоровский) [1983, драма, DVDRip-AVC от KORSAR] pb.wtf

Военно-полевой роман через торрент pb.wtf

Раздают: 2 [ 0 KB/s ]
Размер: 1.75 GB | Добавлен: 3 мес. 6 д. назад | Торрент скачан:2 раза
Скачать  

06-08-2019 16:24 Военно-полевой роман Скачать торрент  

Военно-полевой роман

Жанр: мелодрама
Год выпуска: 1983
Продолжительность: 01:26:51
Режиссер: Петр Тодоровский
В ролях: Николай Бурляев, Наталья Андрейченко, Инна Чурикова, Екатерина Юдина, Зиновий Гердт, Елена Козелькова, Виктор Проскурин, Всеволод Шиловский, Александр Мартынов, Наталья Ченчик, Владимир Юрьев, Вячеслав Дубровин, Галина Золотарева, Александр Кузьмичев, Вячеслав Горюшин, Людмила Баранова, Елена Королева, Ольга Анохина, Лилия Макеева, Вячеслав Жариков, Евгений Филатов

Описание: 1944 год. Скромный, очень застенчивый и неприметный солдат Саша влюблен в гордую, неприступную красавицу Любу, медсестру, но она крутит роман с комдивом. Для Саши она - романтический идеал. Но война закончилась, и он забыл свою тайную любовь. Жизнь Саши сложилась на редкость счастливо. Послевоеннная московская улица. В продавщице пирожков, потертой бабе с вульгарным голосом Саша с удивлением узнаёт бывшую ослепительную красавицу, оставшуюся с дочкой в одиночестве после гибели возлюбленного. Ему надо было пройти мимо, а он не смог...

Релиз от:

Качество: DVDRip-AVC
Видео: MPEG-4 AVC, 700x478@700x538, 25 fps, 2124 Кбит/с
Аудио: AC3, 6 ch, 448 Кбит/с, AC3, 2 ch, 192 Кбит/с
Язык: Русский

x264 [info]: frame I:756 Avg QP:17.92 size: 65685
x264 [info]: frame P:28791 Avg QP:19.50 size: 27955
x264 [info]: frame B:100748 Avg QP:21.65 size: 5615
x264 [info]: consecutive B-frames: 1.4% 2.2% 8.6% 23.3% 27.6% 31.7% 3.7% 1.2% 0.2% 0.2% 0.0%
-----------------------------------------
Общее
Уникальный идентификатор : 218729535140154491124059668143154015127 (0xA48DC6B16D7FFBE68F49154AB86A2B97)
Полное имя : D:\Военно полевой роман_1985-DVDRip-AVC_KORSAR.mkv
Формат : Matroska
Версия формата : Version 2
Размер файла : 1,75 Гбайт
Продолжительность : 1 ч. 26 м.
Общий поток : 2885 Кбит/сек
Название фильма : Военно полевой роман_1985-DVDRip-AVC_KORSAR
Дата кодирования : UTC 2019-07-29 08:30:00
Программа кодирования : mkvmerge v5.8.0 ('No Sleep / Pillow') built on Sep 2 2012 15:37:04
Библиотека кодирования : libebml v1.2.3 + libmatroska v1.3.0

Видео
Идентификатор : 1
Формат : AVC
Формат/Информация : Advanced Video Codec
Профиль формата : High@L4.1
Настройки формата : CABAC / 14 Ref Frames
Параметр CABAC формата : Да
Параметр RefFrames формата : 14 кадров
Идентификатор кодека : V_MPEG4/ISO/AVC
Продолжительность : 1 ч. 26 м.
Битрейт : 2124 Кбит/сек
Ширина : 700 пикселей
Высота : 478 пикселей
Соотношение сторон : 4:3
Соотношение сторон в оригинале : 4:3
Режим частоты кадров : Постоянный
Частота кадров : 25,000 кадров/сек
Цветовое пространство : YUV
Субдискретизация насыщенности : 4:2:0
Битовая глубина : 8 бит
Тип развёртки : Прогрессивная
Бит/(Пиксели*Кадры) : 0.254
Размер потока : 1,29 Гбайт (74%)
Библиотека кодирования : x264 core 152 r2851kMod ba24899
Настройки программы : cabac=1 / ref=14 / deblock=1:-2:-1 / analyse=0x3:0x113 / me=umh / subme=10 / psy=1 / fade_compensate=0.00 / psy_rd=1.05:0.10 / mixed_ref=1 / me_range=48 / chroma_me=1 / trellis=2 / 8x8dct=1 / cqm=0 / deadzone=21,11 / fast_pskip=1 / chroma_qp_offset=-3 / threads=12 / lookahead_threads=3 / sliced_threads=0 / nr=0 / decimate=1 / interlaced=0 / bluray_compat=0 / constrained_intra=0 / bframes=10 / b_pyramid=2 / b_adapt=2 / b_bias=0 / direct=1 / weightb=1 / open_gop=0 / weightp=2 / keyint=250 / keyint_min=25 / scenecut=40 / intra_refresh=0 / rc=crf / mbtree=0 / crf=17.5000 / qcomp=0.63 / qpmin=0 / qpmax=30 / qpstep=4 / ip_ratio=1.40 / pb_ratio=1.30 / aq=1:1.00
Язык : English
Default : Да
Forced : Нет
Цветовой диапазон : Limited
Основные цвета : BT.601 NTSC
Характеристики трансфера : BT.601
Коэффициенты матрицы : BT.601

Аудио #1
Идентификатор : 2
Формат : AC-3
Формат/Информация : Audio Coding 3
Коммерческое название : Dolby Digital
Идентификатор кодека : A_AC3
Продолжительность : 1 ч. 26 м.
Вид битрейта : Постоянный
Битрейт : 448 Кбит/сек
Каналы : 6 каналов
ChannelLayout : L R C LFE Ls Rs
Частота : 48,0 КГц
Частота кадров : 31,250 кадров/сек (1536 SPF)
Битовая глубина : 16 бит
Метод сжатия : С потерями
Размер потока : 278 Мбайт (16%)
Язык : Russian
ServiceKind/String : Complete Main
Default : Да
Forced : Нет

Аудио #2
Идентификатор : 3
Формат : AC-3
Формат/Информация : Audio Coding 3
Коммерческое название : Dolby Digital
Идентификатор кодека : A_AC3
Продолжительность : 1 ч. 26 м.
Вид битрейта : Постоянный
Битрейт : 256 Кбит/сек
Каналы : 2 канала
ChannelLayout : L R
Частота : 48,0 КГц
Частота кадров : 31,250 кадров/сек (1536 SPF)
Битовая глубина : 16 бит
Метод сжатия : С потерями
Размер потока : 159 Мбайт (9%)
Язык : Russian
ServiceKind/String : Complete Main
Default : Нет
Forced : Нет
Трансфер PAL>NTSC, пляшущий шум, мерцание. Исправлено!
pb.wtf



Скачать Военно-полевой роман через торрент http://i6.imageban.ru/out/2018/01/19/ab030e992879c9c180e07aede1e407f5.jpg Скачать фильм Военно-полевой роман через торрент бесплантно в хорошем качестве Описание: 1944 год. Скромный, очень застенчивый и неприметный солдат Саша влюблен в гордую, неприступную красавицу Любу, медсестру, но она ... 10 10 1
Info! Золотая раздача, скачанное не засчитывается.
Торрент: Зарегистрирован [2019-08-06 16:24] · скачан: 2 раз
Статус: √ проверено
Размер: 1.75 GB
Как cкачать? Как скачать Военно-полевой роман через торрент | qTorrent


>> Регистрируемся здесь <<






Отзывы и комментарии о схеме читаем и пишем здесь: ---> Отзывы и комментарии о схеме

Новые благодарочки в телеграм довольных пользователей:
скриншот   скриншот   скриншот   скриншот   скриншот
    Дорогой пользователь! Огромная просьба, поблагодарите релизера, оцените раздачу и оставьте свои комментарий, если Вы скачали Военно-полевой роман через торрент бесплатно! Внесите свою лепту в развитие PiratBit!
    Комментировать посты могут только пользователи прошедшие не сложную регистрацию
    Показать сообщения:    

    Военно-полевой роман через торрент
    Скачать бесплатно Военно-полевой роман
    Военно-полевой роман скачать торрент
    Военно-полевой роман смотреть онлайн
    Cкачать фильм Военно-полевой роман бесплатно
    Военно-полевой роман скачать торрент в хорошем качестве
    Военно-полевой роман смотреть онлайн бесплатно в хорошем качестве


    Вы не можете начинать темы
    Вы не можете отвечать на сообщения
    Вы не можете редактировать свои сообщения
    Вы не можете удалять свои сообщения
    Вы не можете голосовать в опросах
    Вы не можете прикреплять файлы к сообщениям
    Вы можете скачивать файлы