новый адрес
Мега распродажа FORZA HORIZON 4 ULTIMATE+ВСЕ DLC+ОНЛАЙН всего за 499р. 349 руб. (супер цена). Внимание количество ограничено!!!

iTunes

1+1

iTunes

мы

iTunes

1

iTunes

Чернобыль

iTunes

Ральф против интернета

Лицензия

ПШазам

Лицензия

Оно 2

Лицензия

30
pack

ВАЖНО

!!Акция!!

Alien_RageХит недели

RePack

Resident Evil 21

ИГРА 18+

pack

RePack

jed

!!Акция!!

Alien_Rage

RePack

fifa19

RePack

Assassins Creed: Odyssey

RePack

NEED FOR SPEED™ PAYBACK

3 сезон

9 сезон

Бесстыжие 9 сезон

Все сериалы

все сериалы на PB.wtf

RePack

FAR CRY 5
Ребята, катастрофически не хватает 1900р. для оплаты серверов за Октябрь (всвязи с блокировками трафик упал в 3 раза), 1-2р., выручайте.
  

Ход белой королевы (Виктор Садовский) [1972, драма, спорт, SATRip-AVC от KORSAR] pb.wtf

Ход белой королевы через торрент pb.wtf

Раздают: 1 [ 0 KB/s ]
Размер: 2.67 GB | Добавлен: 3 мес. 14 д. назад | Торрент скачан:4 раза
Скачать  

06-08-2019 16:35 Ход белой королевы Скачать торрент  

Ход белой королевы

Жанр: драма, спорт
Год выпуска: 1972
Продолжительность: 01:29:38
Режиссёр: Виктор Садовский
В ролях: Кирилл Лавров, Светлана Головина, Виктория Фёдорова, Николай Озеров, Евгений Евстигнеев, Алексей
Смирнов, Иосиф Конопацкий, Алексей Кожевников, Константин Корнаков, Людмила (Мила) Васютинская, Гелена Ивлиева, Анатолий Королькевич, Степан Крылов, Пантелеймон Крымов, Леонид Куравлёв, Анатолий Папанов, Вера Кузнецова, Николай Сергеев, Александр Суснин, Гелий Сысоев, Людмила Старицына, Владимир Перевалов

Описание: Тренер решает уйти из спорта, но его ученица, будущая "белая королева", победившая на чемпионате по лыжам в Высоких Татрах, возвращает его к любимому делу...
В фильм включены документальные кадры первенства мира по лыжам в Высоких Татрах.

Релиз от:

Качество: SATRip-AVC
Формат: MKV

Видео: MPEG-4 AVC, 700x572@760x572, 25 fps, 3987 Кбит/с
Аудио: AC3, 2 ch, 192 Кбит/с
Язык: Русский

  • x264 [info]: frame I:742 Avg QP:19.51 size: 70046
  • x264 [info]: frame P:33319 Avg QP:20.84 size: 39243
  • x264 [info]: frame B:100243 Avg QP:22.58 size: 13703
  • x264 [info]: consecutive B-frames: 3.3% 5.0% 9.5% 23.6% 22.7% 34.1% 1.5% 0.1% 0.0% 0.0%
Общее
Уникальный идентификатор : 188140195673170879791210666974627814681 (0x8D8A7BD1133BF9AC8E89A8927BF4DD19)
Полное имя : D:\Ход белой королевы_1972-SATRip-AVC_KORSAR.mkv
Формат : Matroska
Версия формата : Version 2
Размер файла : 2,67 Гбайт
Продолжительность : 1 ч. 29 м.
Общий поток : 4264 Кбит/сек
Дата кодирования : UTC 2019-07-27 12:31:47
Программа кодирования : mkvmerge v5.8.0 ('No Sleep / Pillow') built on Sep 2 2012 15:37:04
Библиотека кодирования : libebml v1.2.3 + libmatroska v1.3.0

Видео
Идентификатор : 1
Формат : AVC
Формат/Информация : Advanced Video Codec
Профиль формата : High@L4.1
Настройки формата : CABAC / 14 Ref Frames
Параметр CABAC формата : Да
Параметр RefFrames формата : 14 кадров
Идентификатор кодека : V_MPEG4/ISO/AVC
Продолжительность : 1 ч. 29 м.
Битрейт : 3987 Кбит/сек
Ширина : 700 пикселей
Высота : 572 пикселя
Соотношение сторон : 4:3
Соотношение сторон в оригинале : 4:3
Режим частоты кадров : Постоянный
Частота кадров : 25,000 кадров/сек
Цветовое пространство : YUV
Субдискретизация насыщенности : 4:2:0
Битовая глубина : 8 бит
Тип развёртки : Прогрессивная
Бит/(Пиксели*Кадры) : 0.398
Размер потока : 2,49 Гбайт (94%)
Библиотека кодирования : x264 core 152 r2851kMod ba24899
Настройки программы : cabac=1 / ref=14 / deblock=1:-2:-1 / analyse=0x3:0x133 / me=umh / subme=10 / psy=1 / fade_compensate=0.00 / psy_rd=1.05:0.10 / mixed_ref=1 / me_range=48 / chroma_me=1 / trellis=2 / 8x8dct=1 / cqm=0 / deadzone=21,11 / fast_pskip=1 / chroma_qp_offset=-3 / threads=12 / lookahead_threads=2 / sliced_threads=0 / nr=0 / decimate=1 / interlaced=0 / bluray_compat=0 / constrained_intra=0 / bframes=9 / b_pyramid=2 / b_adapt=2 / b_bias=0 / direct=1 / weightb=1 / open_gop=0 / weightp=2 / keyint=250 / keyint_min=25 / scenecut=40 / intra_refresh=0 / rc=crf / mbtree=0 / crf=17.8000 / qcomp=0.63 / qpmin=0 / qpmax=30 / qpstep=4 / ip_ratio=1.40 / pb_ratio=1.30 / aq=1:1.00
Язык : English
Default : Да
Forced : Нет
Цветовой диапазон : Limited
Основные цвета : BT.601 PAL
Характеристики трансфера : BT.470 System B/G
Коэффициенты матрицы : BT.470 System B/G

Аудио
Идентификатор : 2
Формат : AC-3
Формат/Информация : Audio Coding 3
Коммерческое название : Dolby Digital
Идентификатор кодека : A_AC3
Продолжительность : 1 ч. 29 м.
Вид битрейта : Постоянный
Битрейт : 192 Кбит/сек
Каналы : 2 канала
ChannelLayout : L R
Частота : 48,0 КГц
Частота кадров : 31,250 кадров/сек (1536 SPF)
Битовая глубина : 16 бит
Метод сжатия : С потерями
Размер потока : 123 Мбайт (5%)
Язык : Russian
ServiceKind/String : Complete Main
Default : Да
Forced : Нет
pb.wtf



Скачать Ход белой королевы через торрент http://i31.fastpic.ru/big/2011/1224/90/42328f5281e24bb7dd68f26a563ad590.jpg Скачать фильм Ход белой королевы через торрент бесплантно в хорошем качестве Описание: Тренер решает уйти из спорта, но его ученица, будущая "белая королева", победившая на чемпионате по лыжам в Высоких Татрах, ... 5 10 1
Info! Серебряная раздача, засчитывается только 50% скачанного.
Торрент: Зарегистрирован [2019-08-06 16:35] · скачан: 4 раз
Статус: √ проверено
Размер: 2.67 GB
Как cкачать? Как скачать Ход белой королевы через торрент | qTorrent



Последний раз редактировалось: filbi1976 (2019-08-06 16:53), всего редактировалось 1 раз


>> Регистрируемся здесь <<






Отзывы и комментарии о схеме читаем и пишем здесь: ---> Отзывы и комментарии о схеме

Новые благодарочки в телеграм довольных пользователей:
скриншот   скриншот   скриншот   скриншот   скриншот

06-08-2019 16:41 Ход белой королевы Скачать торрент  

Ребята, если не будете поддерживать наши раздачи сидированием, их тут больше не будет.
pb.wtf



    Дорогой пользователь! Огромная просьба, поблагодарите релизера, оцените раздачу и оставьте свои комментарий, если Вы скачали Ход белой королевы через торрент бесплатно! Внесите свою лепту в развитие PiratBit!
    Комментировать посты могут только пользователи прошедшие не сложную регистрацию
    Показать сообщения:    

    Ход белой королевы через торрент
    Скачать бесплатно Ход белой королевы
    Ход белой королевы скачать торрент
    Ход белой королевы смотреть онлайн
    Cкачать фильм Ход белой королевы бесплатно
    Ход белой королевы скачать торрент в хорошем качестве
    Ход белой королевы смотреть онлайн бесплатно в хорошем качестве


    Вы не можете начинать темы
    Вы не можете отвечать на сообщения
    Вы не можете редактировать свои сообщения
    Вы не можете удалять свои сообщения
    Вы не можете голосовать в опросах
    Вы не можете прикреплять файлы к сообщениям
    Вы можете скачивать файлы