Ссылка на приватное зеркало всего за 1$. Внимание количество ограничено!!!

iTunes

iTunes

iTunes

1

iTunes

iTunes

iTunes

WEBRip

iTunes

30
pack

$ от Little Big

ВАЖНО

!!Акция!!

Alien_RageХит недели

RePack

Resident Evil 21

ИГРА 18+

pack

RePack

jed

!!Акция!!

Alien_Rage

RePack

fifa19

RePack

Assassins Creed: Odyssey

RePack

NEED FOR SPEED™ PAYBACK

4 сезон

9 сезон

Бесстыжие 9 сезон

Все сериалы

все сериалы на PB.wtf

RePack

FAR CRY 5
  

Ты у меня одна (Дмитрий Астрахан) [1993 г., Драма, DVDRip-AVC от KORSAR] pb.wtf

Ты у меня одна через торрент pb.wtf

Размер: 1.91 GB | Добавлен: 11 мес. назад | Торрент скачан:18 раз
Скачать  

07-08-2019 09:00 Ты у меня одна Скачать торрент  

Ты у меня одна
Год выпуска: 1993
Страна: Россия
Жанр: Драма
Продолжительность: 01:35:27
Перевод: Не требуется
Субтитры: Нет

Режиссер: Дмитрий Астрахан
В ролях: Александр Збруев, Марина Неёлова, Светлана Рябова, Марк Горонок, Мария Лобачева, Ксения Морозова, Виктор Гоголев, Ирина Мазуркевич, Александр Лыков, Артур Ваха

Описание: Бывший боксер, а ныне — рядовой инженер, Евгений Тимошин получает возможность изменить свою жизнь к лучшему. Его зовет с собой в Америку молодая, красивая, богатая женщина, которая с детства в него влюблена. Но Тимошин любит свою жену, и никогда не мечтал об Америке…

rating

Качество: DVDRip-AVC
Формат: MKV

Видео кодек: H.264
Аудио кодек: AC3
Видео: MPEG-4 AVC, 702х576@755х576, 25,000 fps, 2356 Кбит/с
Аудио: AC3, 6 ch, 448 Кбит/с


Релиз от:
Общее
Уникальный идентификатор : 182081308090742844907978204528207051622 (0x88FB9598637D386E87F5AE3B2A41BB66)
Полное имя : D:Ты у меня одна_1993-DVDRip-AVC.mkv
Формат : Matroska
Версия формата : Version 2
Размер файла : 1,91 Гбайт
Продолжительность : 1 ч. 35 м.
Общий поток : 2861 Кбит/сек
Дата кодирования : UTC 2017-06-20 20:59:49
Программа кодирования : mkvmerge v5.8.0 ('No Sleep / Pillow') built on Sep 2 2012 15:37:04
Библиотека кодирования : libebml v1.2.3 + libmatroska v1.3.0

Видео
Идентификатор : 1
Формат : AVC
Формат/Информация : Advanced Video Codec
Профиль формата : High@L4.1
Параметр CABAC формата : Да
Параметр ReFrames формата : 14 кадров
Идентификатор кодека : V_MPEG4/ISO/AVC
Продолжительность : 1 ч. 35 м.
Битрейт : 2356 Кбит/сек
Ширина : 702 пикселя
Высота : 576 пикселей
Соотношение сторон : 4:3
Соотношение сторон в оригинале : 4:3
Режим частоты кадров : Постоянный
Частота кадров : 25,000 кадров/сек
Цветовое пространство : YUV
Субдискретизация насыщенности : 4:2:0
Битовая глубина : 8 бит
Тип развёртки : Прогрессивная
Бит/(Пиксели*Кадры) : 0.233
Размер потока : 1,57 Гбайт (82%)
Заголовок : korsar.tv
Библиотека кодирования : x264 core 148 r2744kMod b97ae06
Настройки программы : cabac=1 / ref=14 / deblock=1:-2:-1 / analyse=0x3:0x133 / me=umh / subme=10 / psy=1 / fade_compensate=0.00 / psy_rd=1.05:0.13 / mixed_ref=1 / me_range=40 / chroma_me=1 / trellis=2 / 8x8dct=1 / cqm=0 / deadzone=21,11 / fast_pskip=1 / chroma_qp_offset=-3 / threads=12 / lookahead_threads=2 / sliced_threads=0 / nr=0 / decimate=1 / interlaced=0 / bluray_compat=0 / constrained_intra=0 / bframes=9 / b_pyramid=2 / b_adapt=2 / b_bias=0 / direct=1 / weightb=1 / open_gop=0 / weightp=2 / keyint=250 / keyint_min=25 / scenecut=40 / intra_refresh=0 / rc=crf / mbtree=0 / crf=18.0000 / qcomp=0.63 / qpmin=0 / qpmax=39 / qpstep=4 / ip_ratio=1.40 / pb_ratio=1.30 / aq=2:1.00
Язык : English
Default : Да
Forced : Нет
Цветовой диапазон : Limited
Основные цвета : BT.601 PAL
Характеристики трансфера : BT.470 System B, BT.470 System G
Коэффициенты матрицы : BT.601

Аудио
Идентификатор : 2
Формат : AC-3
Формат/Информация : Audio Coding 3
Параметр Endianness формата : Big
Идентификатор кодека : A_AC3
Продолжительность : 1 ч. 35 м.
Вид битрейта : Постоянный
Битрейт : 448 Кбит/сек
Каналы : 6 каналов
Расположение каналов : Front: L C R, Side: L R, LFE
Частота : 48,0 КГц
Частота кадров : 31,250 кадров/сек (1536 spf)
Битовая глубина : 16 бит
Метод сжатия : С потерями
Размер потока : 306 Мбайт (16%)
Язык : Russian
Default : Да
Forced : Нет

Меню
00:00:00.000 : en:Chapter 1
00:06:54.840 : en:Chapter 2
00:15:41.520 : en:Chapter 3
00:24:45.960 : en:Chapter 4
00:33:25.440 : en:Chapter 5
00:41:52.560 : en:Chapter 6
00:48:39.120 : en:Chapter 7
00:57:35.880 : en:Chapter 8
01:05:27.480 : en:Chapter 9
01:13:58.920 : en:Chapter 10
01:20:54.360 : en:Chapter 11
01:29:16.080 : en:Chapter 12
01:35:26.640 : en:Chapter 13
pb.wtf



Скачать Ты у меня одна через торрент https://i98.fastpic.ru/big/2018/1108/72/d72f4dae409243b5e53ee6ca1260c772.jpg Скачать фильм Ты у меня одна через торрент бесплантно в хорошем качестве Описание: Бывший боксер, а ныне — рядовой инженер, Евгений Тимошин получает возможность изменить свою жизнь к лучшему. Его зовет с собой в ... 10 10 3
Торрент: Зарегистрирован [2019-08-07 09:00] · скачан: 18 раз
Статус: √ проверено
Размер: 1.91 GB
Как cкачать? Как скачать Ты у меня одна через торрент | qTorrent

% Раздел Тема Автор DL S | L
Наши фильмы (HD, WEB-DL 720p, 1080p) [ 6.07 GB ] Ты у меня одна [1993 Мело WEBRip 720p от KORSAR] filbi1976 Скачать
1 | 0
Кино СССР [ 695 MB ] Ты у меня одна [1993 Мелодрамма DVDRip] manhunt5530 Скачать
1 | 0

28-11-2019 20:33  

Отключить всю рекламу на сайте

09-08-2019 07:22 Ты у меня одна Скачать торрент  

шикарный фильмpb.wtf



    Дорогой пользователь! Огромная просьба, поблагодарите релизера, оцените раздачу и оставьте свои комментарий, если Вы скачали Ты у меня одна через торрент бесплатно! Внесите свою лепту в развитие PiratBit!
    Комментировать посты могут только пользователи прошедшие не сложную регистрацию
    Показать сообщения:    

    Ты у меня одна через торрент
    Скачать бесплатно Ты у меня одна
    Ты у меня одна скачать торрент
    Ты у меня одна смотреть онлайн
    Cкачать фильм Ты у меня одна бесплатно
    Ты у меня одна скачать торрент в хорошем качестве
    Ты у меня одна смотреть онлайн бесплатно в хорошем качестве


    Вы не можете начинать темы
    Вы не можете отвечать на сообщения
    Вы не можете редактировать свои сообщения
    Вы не можете удалять свои сообщения
    Вы не можете голосовать в опросах
    Вы не можете прикреплять файлы к сообщениям
    Вы можете скачивать файлы