новый адрес
Ссылка на приватное зеркало всего за 1$. Внимание количество ограничено!!!

iTunes

1+1

iTunes

мы

iTunes

1

iTunes

Чернобыль

iTunes

Ральф против интернета

Лицензия

ПШазам

Лицензия

Оно 2

Лицензия

30
pack

Вам бонус

ВАЖНО

!!Акция!!

Alien_RageХит недели

RePack

Resident Evil 21

ИГРА 18+

pack

RePack

jed

!!Акция!!

Alien_Rage

RePack

fifa19

RePack

Assassins Creed: Odyssey

RePack

NEED FOR SPEED™ PAYBACK

3 сезон

9 сезон

Бесстыжие 9 сезон

Все сериалы

все сериалы на PB.wtf

RePack

FAR CRY 5
Ребята, катастрофически не хватает 1900р. для оплаты серверов за Октябрь (всвязи с блокировками трафик упал в 3 раза), 1-2р., выручайте.
  

Хозяйка Медвежьей реки (Владимир Храмов) [1963, СССР, мелодрама, VHSRip от AVP Studio] pb.wtf

Хозяйка Медвежьей реки через торрент pb.wtf

Раздают: 4 [ 0 KB/s ]
Размер: 745 MB | Добавлен: 3 мес. 15 д. назад | Торрент скачан:5 раз
Скачать  

07-08-2019 09:24 Хозяйка Медвежьей реки Скачать торрент  

Хозяйка Медвежьей реки
Страна: СССР
Производство: Студия Центрального телевидения

Жанр: мелодрама
Год выпуска: 1963
Продолжительность: 01:09:03

Перевод: Не требуется
Cубтитры: нет
Оригинальная аудиодорожка: русский

Режиссер: Владимир Храмов

В ролях:
Лидия Шапоренко, Геннадий Крынкин, Юрий Горобец, Татьяна Царапкина...
Об актёрах подробней

Описание:
История зарождающегося чувства любви. Действие происходит на исследовательской станции Министерства рыбного хозяйства, организованной в районе Петропавловска-Камчатского у Медвежьей речки.

Исходник: VHS
Качество видео: VHSRip
Формат видео: AVI

Видео: 640x480 (4:3), 25,000 кадров/сек, XviD ~ 1308 kbps avg, 0.170 bit/pixel
Аудио: 48 kHz, Dolby Digital AC3 2.0, 192 kbps

Раздача от:
Общее
Полное имя : Hozyayka.medvezhey.rechki.1963.VHSRip_[New-team]_by_AVP_Studio.avi
Формат : AVI
Формат/Информация : Audio Video Interleave
Размер файла : 745 Мбайт
Продолжительность : 1 ч. 9 м.
Общий поток : 1509 Кбит/сек
Программа кодирования : VirtualDubMod 1.5.10.3 | www.virtualdub-fr.org || (build 2550/release)
Библиотека кодирования : VirtualDubMod build 2550/release

Видео
Идентификатор : 0
Формат : MPEG-4 Visual
Профиль формата : Advanced Simple@L5
Настройки формата : BVOP1 / Custom Matrix
Параметр BVOP формата : 1
Параметр QPel формата : Нет
Параметр GMC формата : Без точки перехода
Параметр матрицы формата : Выборочная
Идентификатор кодека : XVID
Идентификатор кодека/Подсказка : XviD
Продолжительность : 1 ч. 9 м.
Битрейт : 1308 Кбит/сек
Ширина : 640 пикселей
Высота : 480 пикселей
Соотношение сторон : 4:3
Частота кадров : 25,000 кадров/сек
Цветовое пространство : YUV
Субдискретизация насыщенности : 4:2:0
Битовая глубина : 8 бит
Тип развёртки : Прогрессивная
Метод сжатия : С потерями
Бит/(Пиксели*Кадры) : 0.170
Размер потока : 646 Мбайт (87%)
Библиотека кодирования : XviD 73

Аудио
Идентификатор : 1
Формат : AC-3
Формат/Информация : Audio Coding 3
Коммерческое название : Dolby Digital
Идентификатор кодека : 2000
Продолжительность : 1 ч. 9 м.
Вид битрейта : Постоянный
Битрейт : 192 Кбит/сек
Каналы : 2 канала
ChannelLayout : L R
Частота : 48,0 КГц
Частота кадров : 31,250 кадров/сек (1536 SPF)
Битовая глубина : 16 бит
Метод сжатия : С потерями
Размер потока : 94,8 Мбайт (13%)
Выравнивание : Разделение по промежуткам
Продолжительность промежутка : 40 мс. (1,00 видеокадр)
Время предзагрузки промежутка : 500 мс
pb.wtf



Скачать Хозяйка Медвежьей реки через торрент http://picplus.ru/img/1908/04/eb4e1571.png Скачать фильм Хозяйка Медвежьей реки через торрент бесплантно в хорошем качестве Описание:История зарождающегося чувства любви. Действие происходит на исследовательской станции Министерства рыбного хозяйства, ... 5 10 1
Торрент: Зарегистрирован [2019-08-07 09:24] · скачан: 5 раз
Статус: √ проверено
Размер: 745 MB
Как cкачать? Как скачать Хозяйка Медвежьей реки через торрент | qTorrent

% Раздел Тема Автор DL S | L
Кино СССР [ 745 MB ] Хозяйка Медвежьей реки [1963 СССР VHSRip-AVC от AVP Studio] AVP Studio Скачать
5 | 0
    Дорогой пользователь! Огромная просьба, поблагодарите релизера, оцените раздачу и оставьте свои комментарий, если Вы скачали Хозяйка Медвежьей реки через торрент бесплатно! Внесите свою лепту в развитие PiratBit!
    Комментировать посты могут только пользователи прошедшие не сложную регистрацию
    Показать сообщения:    

    Хозяйка Медвежьей реки через торрент
    Скачать бесплатно Хозяйка Медвежьей реки
    Хозяйка Медвежьей реки скачать торрент
    Хозяйка Медвежьей реки смотреть онлайн
    Cкачать фильм Хозяйка Медвежьей реки бесплатно
    Хозяйка Медвежьей реки скачать торрент в хорошем качестве
    Хозяйка Медвежьей реки смотреть онлайн бесплатно в хорошем качестве


    Вы не можете начинать темы
    Вы не можете отвечать на сообщения
    Вы не можете редактировать свои сообщения
    Вы не можете удалять свои сообщения
    Вы не можете голосовать в опросах
    Вы не можете прикреплять файлы к сообщениям
    Вы можете скачивать файлы