Ссылка на приватное зеркало всего за 1$. Внимание количество ограничено!!!

OK

1+1

iTunes

мы

OK

1

WEB-DLRip

Джокер

Пифагор

Ведьмак / The Witcher сериал

Лицензия

ПШазам

ОК

Оно 2

iTunes

30
pack

Вам бонус

ВАЖНО

!!Акция!!

Alien_RageХит недели

RePack

Resident Evil 21

ИГРА 18+

pack

RePack

jed

!!Акция!!

Alien_Rage

RePack

fifa19

RePack

Assassins Creed: Odyssey

RePack

NEED FOR SPEED™ PAYBACK

4 сезон

9 сезон

Бесстыжие 9 сезон

Все сериалы

все сериалы на PB.wtf

RePack

FAR CRY 5
  

Хозяйка Медвежьей реки (Владимир Храмов) [1963, СССР, мелодрама, VHSRip-AVC от AVP Studio] pb.wtf

Хозяйка Медвежьей реки через торрент pb.wtf

Раздают: 3 [ 0 KB/s ]
Размер: 745 MB | Добавлен: 5 мес. 13 д. назад | Торрент скачан:12 раз
Скачать  

07-08-2019 09:25 Хозяйка Медвежьей реки Скачать торрент  

Хозяйка Медвежьей реки
Страна: СССР
Производство: Студия Центрального телевидения

Жанр: мелодрама
Год выпуска: 1963
Продолжительность: 01:09:03

Перевод: Не требуется
Cубтитры: нет
Оригинальная аудиодорожка: русский

Режиссер: Владимир Храмов

В ролях:
Лидия Шапоренко, Геннадий Крынкин, Юрий Горобец, Татьяна Царапкина...
Об актёрах подробней

Описание:
История зарождающегося чувства любви. Действие происходит на исследовательской станции Министерства рыбного хозяйства, организованной в районе Петропавловска-Камчатского у Медвежьей речки.

Исходник: VHS
Качество видео: VHSRip-AVC
Формат видео: MKV

Видео: 640->704x528 (4:3), 25,000 кадров/сек, H264 ~ 1314 kbps avg, 0.154 bit/pixel
Аудио: 48 kHz, Dolby Digital AC3 2.0, 192 kbps

Раздача от:
Общее
Полное имя : Hozyayka.medvezhey.rechki.1963.VHSRip-AVC_[New-team]_by_AVP_Studio.mkv
Формат : Matroska
Версия формата : Version 2
Размер файла : 745 Мбайт
Продолжительность : 1 ч. 9 м.
Общий поток : 1508 Кбит/сек
Дата кодирования : UTC 2019-07-27 19:03:27
Программа кодирования : mkvmerge v6.1.0 ('Old Devil') built on Mar 4 2013 09:10:42
Библиотека кодирования : libebml v1.3.0 + libmatroska v1.4.0

Видео
Идентификатор : 1
Формат : AVC
Формат/Информация : Advanced Video Codec
Профиль формата : High@L4.1
Настройки формата : CABAC / 10 Ref Frames
Параметр CABAC формата : Да
Параметр RefFrames формата : 10 кадров
Идентификатор кодека : V_MPEG4/ISO/AVC
Продолжительность : 1 ч. 9 м.
Битрейт : 1314 Кбит/сек
Ширина : 648 пикселей
Высота : 528 пикселей
Соотношение сторон : 4:3
Режим частоты кадров : Постоянный
Частота кадров : 25,000 кадров/сек
Цветовое пространство : YUV
Субдискретизация насыщенности : 4:2:0
Битовая глубина : 8 бит
Тип развёртки : Прогрессивная
Бит/(Пиксели*Кадры) : 0.154
Размер потока : 635 Мбайт (85%)
Библиотека кодирования : x264 core 157 r2932 303c484
Настройки программы : cabac=1 / ref=10 / deblock=1:-2:-1 / analyse=0x3:0x113 / me=umh / subme=10 / psy=1 / psy_rd=1.00:0.00 / mixed_ref=1 / me_range=32 / chroma_me=1 / trellis=2 / 8x8dct=1 / cqm=0 / deadzone=21,11 / fast_pskip=1 / chroma_qp_offset=-2 / threads=6 / lookahead_threads=1 / sliced_threads=0 / nr=0 / decimate=0 / interlaced=0 / bluray_compat=0 / constrained_intra=0 / bframes=8 / b_pyramid=2 / b_adapt=2 / b_bias=0 / direct=3 / weightb=1 / open_gop=0 / weightp=2 / keyint=250 / keyint_min=25 / scenecut=40 / intra_refresh=0 / rc=2pass / mbtree=0 / bitrate=1314 / ratetol=1.0 / qcomp=0.60 / qpmin=0 / qpmax=69 / qpstep=4 / cplxblur=20.0 / qblur=0.5 / ip_ratio=1.40 / pb_ratio=1.30 / aq=1:1.00
Default : Да
Forced : Нет

Аудио
Идентификатор : 2
Формат : AC-3
Формат/Информация : Audio Coding 3
Коммерческое название : Dolby Digital
Идентификатор кодека : A_AC3
Продолжительность : 1 ч. 9 м.
Вид битрейта : Постоянный
Битрейт : 192 Кбит/сек
Каналы : 2 канала
ChannelLayout : L R
Частота : 48,0 КГц
Частота кадров : 31,250 кадров/сек (1536 SPF)
Битовая глубина : 16 бит
Метод сжатия : С потерями
Размер потока : 94,8 Мбайт (13%)
Default : Да
Forced : Нет
pb.wtf



Скачать Хозяйка Медвежьей реки через торрент http://a.radikal.ru/a28/1912/34/aa37bcb12fa9.png Скачать фильм Хозяйка Медвежьей реки через торрент бесплантно в хорошем качестве Описание:История зарождающегося чувства любви. Действие происходит на исследовательской станции Министерства рыбного хозяйства, ... 5 10 1
Торрент: Зарегистрирован [2019-08-07 09:25] · скачан: 12 раз
Статус: √ проверено
Размер: 745 MB
Как cкачать? Как скачать Хозяйка Медвежьей реки через торрент | qTorrent

% Раздел Тема Автор DL S | L
Кино СССР [ 745 MB ] Хозяйка Медвежьей реки [1963 СССР VHSRip от AVP Studio] AVP Studio Скачать
5 | 0

28-11-2019 20:33  

Отключить всю рекламу на сайте

    Дорогой пользователь! Огромная просьба, поблагодарите релизера, оцените раздачу и оставьте свои комментарий, если Вы скачали Хозяйка Медвежьей реки через торрент бесплатно! Внесите свою лепту в развитие PiratBit!
    Комментировать посты могут только пользователи прошедшие не сложную регистрацию
    Показать сообщения:    

    Хозяйка Медвежьей реки через торрент
    Скачать бесплатно Хозяйка Медвежьей реки
    Хозяйка Медвежьей реки скачать торрент
    Хозяйка Медвежьей реки смотреть онлайн
    Cкачать фильм Хозяйка Медвежьей реки бесплатно
    Хозяйка Медвежьей реки скачать торрент в хорошем качестве
    Хозяйка Медвежьей реки смотреть онлайн бесплатно в хорошем качестве


    Вы не можете начинать темы
    Вы не можете отвечать на сообщения
    Вы не можете редактировать свои сообщения
    Вы не можете удалять свои сообщения
    Вы не можете голосовать в опросах
    Вы не можете прикреплять файлы к сообщениям
    Вы можете скачивать файлы