новый адрес
Ссылка на приватное зеркало всего за 1$. Внимание количество ограничено!!!

iTunes

1+1

iTunes

мы

iTunes

1

iTunes

Чернобыль

iTunes

Ральф против интернета

Лицензия

ПШазам

Лицензия

Оно 2

Лицензия

30
pack

Вам бонус

ВАЖНО

!!Акция!!

Alien_RageХит недели

RePack

Resident Evil 21

ИГРА 18+

pack

RePack

jed

!!Акция!!

Alien_Rage

RePack

fifa19

RePack

Assassins Creed: Odyssey

RePack

NEED FOR SPEED™ PAYBACK

3 сезон

9 сезон

Бесстыжие 9 сезон

Все сериалы

все сериалы на PB.wtf

RePack

FAR CRY 5
Ребята, катастрофически не хватает 1900р. для оплаты серверов за Октябрь (всвязи с блокировками трафик упал в 3 раза), 1-2р., выручайте.
  

Дамы в черном / Леди в черном / Ladies in Black (Брюс Бересфорд) [2018, драма, комедия, BDRip-AVC] [MVO] pb.wtf

Дамы в черном через торрент pb.wtf

Раздают: 8 [ 0 KB/s ]
Размер: 2.13 GB | Добавлен: 3 мес. 29 д. назад | Торрент скачан:49 раз
Скачать  

07-08-2019 09:48 Дамы в черном Скачать торрент  

Дамы в черном
Ladies in Black

Страна: Австралия
Жанр: драма, комедия
Год выпуска: 2018
Продолжительность: 01:49:04

Перевод: Профессиональный (многоголосый, закадровый) [ivi]
Субтитры: русские (полные), английские (полные, SDH)
Оригинальная аудиодорожка: английский

Режиссер: Брюс Бересфорд / Bruce Beresford

В ролях: Джулия Ормонд, Энгаури Райс, Рэйчел Тейлор, Элисон МакГирр, Райан Корр, Венсан Перес, Сьюзи Портер, Шэйн Джейкобсон, Нони Хазлхерст, Николас Хэммонд

Описание: Действие фильма разворачивается в Сиднее 1959 года на фоне культурного расцвета Австралии, разрушения классовых структур и феминизации. В ожидании результатов выпускных экзаменов и в мечтах о Сиднейском университете, Лиза устраивается на летнюю подработку в большой универмаг. Новые друзья открывают девушке глаза на взрослый и незнакомый ей мир.



Релиз:

Автор рипа: stalkerok

Сэмпл

Качество видео: BDRip-AVC | Исходник: Ladies.in.Black.2018.1080p.BluRay.AVC.DTS-HD.MA.5.1-HDBEE
Формат видео: MKV
Видео кодек: AVC
Аудио кодек: AC3
Видео: AVC, 1962 Кбит/сек, 1150x482 (2.40:1), 23,976 кадр/сек
Аудио №1: AC3, 384 Кбит/сек, 48 КГц, 5.1 - русский
Аудио №2: AC3, 448 Кбит/сек, 48 КГц, 5.1 - английский
Навигация по главам: есть
---[Information] [07.07.2019 11:52:35] x264 [info]: frame I:1175 Avg QP:15.01 size: 75142
---[Information] [07.07.2019 11:52:35] x264 [info]: frame P:34736 Avg QP:17.95 size: 21770
---[Information] [07.07.2019 11:52:35] x264 [info]: frame B:121009 Avg QP:18.96 size: 6287

General
Unique ID : 286980748310350488394684120750729597058 (0xD7E67B4E4A29FA98E955C320C99E1082)
Complete name : C:\temp\Ladies in Black\Ladies.in.Black.2018.BDRip.x264.Rus.Eng.stalkerok.New-Team.mkv
Format : Matroska
Format version : Version 4
File size : 2.13 GiB
Duration : 1 h 49 min
Overall bit rate : 2 797 kb/s
Movie name : Ladies in Black (2018) | Rip by stalkerok
Encoded date : UTC 2019-07-07 15:33:46
Writing application : mkvmerge v33.1.0 ('Primrose') 64-bit
Writing library : libebml v1.3.7 + libmatroska v1.5.0

Video
ID : 1
Format : AVC
Format/Info : Advanced Video Codec
Format profile : High@L4.1
Format settings : CABAC / 12 Ref Frames
Format settings, CABAC : Yes
Format settings, RefFrames : 12 frames
Codec ID : V_MPEG4/ISO/AVC
Duration : 1 h 49 min
Bit rate : 1 962 kb/s
Width : 1 150 pixels
Height : 482 pixels
Display aspect ratio : 2.40:1
Frame rate mode : Constant
Frame rate : 23.976 FPS
Color space : YUV
Chroma subsampling : 4:2:0
Bit depth : 8 bits
Scan type : Progressive
Bits/(Pixel*Frame) : 0.148
Stream size : 1.50 GiB (70%)
Title : Ladies in Black (2018) | Rip by stalkerok
Writing library : x264 core 157 r2945 72db437
Encoding settings : cabac=1 / ref=12 / deblock=1:-3:-2 / analyse=0x3:0x133 / me=umh / subme=10 / psy=1 / psy_rd=1.00:0.00 / mixed_ref=1 / me_range=32 / chroma_me=1 / trellis=2 / 8x8dct=1 / cqm=0 / deadzone=21,11 / fast_pskip=0 / chroma_qp_offset=-2 / threads=12 / lookahead_threads=3 / sliced_threads=0 / nr=0 / decimate=1 / interlaced=0 / bluray_compat=0 / constrained_intra=0 / bframes=13 / b_pyramid=2 / b_adapt=2 / b_bias=0 / direct=3 / weightb=1 / open_gop=0 / weightp=2 / keyint=240 / keyint_min=23 / scenecut=40 / intra_refresh=0 / rc_lookahead=60 / rc=crf / mbtree=0 / crf=17.1 / qcomp=0.65 / qpmin=0 / qpmax=69 / qpstep=4 / vbv_maxrate=50000 / vbv_bufsize=62500 / crf_max=0.0 / nal_hrd=none / filler=0 / ip_ratio=1.40 / pb_ratio=1.30 / aq=3:0.80 / zones=147389,156919,q=30
Default : Yes
Forced : No

Audio #1
ID : 2
Format : AC-3
Format/Info : Audio Coding 3
Commercial name : Dolby Digital
Codec ID : A_AC3
Duration : 1 h 49 min
Bit rate mode : Constant
Bit rate : 384 kb/s
Channel(s) : 6 channels
Channel layout : L R C LFE Ls Rs
Sampling rate : 48.0 kHz
Frame rate : 31.250 FPS (1536 SPF)
Bit depth : 16 bits
Compression mode : Lossy
Stream size : 300 MiB (14%)
Title : MVO
Language : Russian
Service kind : Complete Main
Default : Yes
Forced : No

Audio #2
ID : 3
Format : AC-3
Format/Info : Audio Coding 3
Commercial name : Dolby Digital
Codec ID : A_AC3
Duration : 1 h 49 min
Bit rate mode : Constant
Bit rate : 448 kb/s
Channel(s) : 6 channels
Channel layout : L R C LFE Ls Rs
Sampling rate : 48.0 kHz
Frame rate : 31.250 FPS (1536 SPF)
Bit depth : 16 bits
Compression mode : Lossy
Stream size : 350 MiB (16%)
Language : English
Service kind : Complete Main
Default : No
Forced : No

Text #1
ID : 4
Format : UTF-8
Codec ID : S_TEXT/UTF8
Codec ID/Info : UTF-8 Plain Text
Duration : 1 h 48 min
Bit rate : 104 b/s
Count of elements : 1446
Stream size : 83.0 KiB (0%)
Language : Russian
Default : No
Forced : No

Text #2
ID : 5
Format : UTF-8
Codec ID : S_TEXT/UTF8
Codec ID/Info : UTF-8 Plain Text
Duration : 1 h 43 min
Bit rate : 68 b/s
Count of elements : 1491
Stream size : 51.6 KiB (0%)
Language : English
Default : No
Forced : No

Text #3
ID : 6
Format : UTF-8
Codec ID : S_TEXT/UTF8
Codec ID/Info : UTF-8 Plain Text
Duration : 1 h 43 min
Bit rate : 74 b/s
Count of elements : 1516
Stream size : 56.4 KiB (0%)
Title : SDH
Language : English
Default : No
Forced : No

Menu
00:00:00.000 : :Chapter 1
00:06:04.990 : :Chapter 2
00:11:14.549 : :Chapter 3
00:17:48.109 : :Chapter 4
00:25:14.430 : :Chapter 5
00:31:10.994 : :Chapter 6
00:38:33.686 : :Chapter 7
00:45:44.116 : :Chapter 8
00:51:56.238 : :Chapter 9
00:59:45.957 : :Chapter 10
01:04:09.763 : :Chapter 11
01:07:56.739 : :Chapter 12
01:13:45.129 : :Chapter 13
01:18:11.228 : :Chapter 14
01:25:05.726 : :Chapter 15
01:29:27.362 : :Chapter 16
01:35:10.163 : :Chapter 17
01:41:15.444 : :Chapter 18
pb.wtf



Скачать Дамы в черном через торрент http://i6.imageban.ru/out/2017/09/18/2ff75c0c358795c5946784cc1680714d.png Скачать фильм Дамы в черном через торрент бесплантно в хорошем качестве Описание: Действие фильма разворачивается в Сиднее 1959 года на фоне культурного расцвета Австралии, разрушения классовых структур и ... 5 10 1
Info! Золотая раздача, скачанное не засчитывается.
Торрент: Зарегистрирован [2019-08-07 09:48] · скачан: 49 раз
Статус: √ проверено
Размер: 2.13 GB
Как cкачать? Как скачать Дамы в черном через торрент | qTorrent

% Раздел Тема Автор DL S | L
Фильмы 2018 [DVDrip, WEB-DLRip, HDrip] (DUB, MVO) [ 745 MB ] Дамы в черном / Леди в черном / Ladies in Black [2018 BDRip-AVC] [MVO] sokol_ok Скачать
4 | 0
Фильмы 2018 [DVDrip, WEB-DLRip, HDrip] (DUB, MVO) [ 1.43 GB ] Дамы в черном / Леди в черном / Ladies in Black [2018 BDRip-AVC] [MVO] sokol_ok Скачать
9 | 0
Отключить всю рекламу на сайте
    Дорогой пользователь! Огромная просьба, поблагодарите релизера, оцените раздачу и оставьте свои комментарий, если Вы скачали Дамы в черном через торрент бесплатно! Внесите свою лепту в развитие PiratBit!
    Комментировать посты могут только пользователи прошедшие не сложную регистрацию
    Показать сообщения:    

    Дамы в черном через торрент
    Скачать бесплатно Дамы в черном
    Дамы в черном скачать торрент
    Дамы в черном смотреть онлайн
    Cкачать фильм Дамы в черном бесплатно
    Дамы в черном скачать торрент в хорошем качестве
    Дамы в черном смотреть онлайн бесплатно в хорошем качестве


    Вы не можете начинать темы
    Вы не можете отвечать на сообщения
    Вы не можете редактировать свои сообщения
    Вы не можете удалять свои сообщения
    Вы не можете голосовать в опросах
    Вы не можете прикреплять файлы к сообщениям
    Вы можете скачивать файлы