новый адрес пиратбит piratbit
Мега распродажа FORZA HORIZON 4 ULTIMATE+ВСЕ DLC+ОНЛАЙН всего за 499р. 349 руб. (супер цена). Внимание количество ограничено!!!

iTunes

1+1

iTunes

мы

iTunes

1

iTunes

Чернобыль

iTunes

Ральф против интернета

Лицензия

ПШазам

Лицензия

Игра престолов

Лицензия

30
pack

ВАЖНО

!!Акция!!

Alien_RageХит недели

RePack

Resident Evil 21

ИГРА 18+

pack

RePack

Metro:Exodus

!!Акция!!

Alien_Rage

RePack

fifa19

RePack

Assassins Creed: Odyssey

RePack

NEED FOR SPEED™ PAYBACK

3 сезон

9 сезон

Бесстыжие 9 сезон

Все сериалы

все сериалы на PB.wtf

RePack

FAR CRY 5
Ребята, катастрофически не хватает 1900р. для оплаты серверов за Октябрь (всвязи с блокировками трафик упал в 3 раза), 1-2р., выручайте.
  

Балканский рубеж (Андрей Волгин) [2019, боевик, драма, BDRip-AVC] pb.wtf

Балканский рубеж через торрент pb.wtf

Раздают: 48 [ 38 KB/s ]
Размер: 1.47 GB | Добавлен: 3 мес. 4 д. назад | Торрент скачан:114 раз
Скачать  

07-08-2019 14:00 Балканский рубеж Скачать торрент  

Балканский рубеж

«Мир, за который стоит бороться»

Страна: Россия, Сербия
Жанр: боевик, драма
Год выпуска: 2019
Продолжительность: 02:31:16

Перевод: Не требуется
Субтитры: русские (форсированные)
Оригинальная аудиодорожка: русский

Режиссер: Андрей Волгин

В ролях: Антон Пампушный, Гоша Куценко, Милош Бикович, Милена Радулович, Гойко Митич, Равшана Куркова, Дмитрий Фрид, Александар Сречкович, Светлана Чуйкина, Миодраг Радонич

Описание: Югославия. 1999 год. Российская спецгруппа получает приказ взять под контроль аэродром Слатина в Косово и удерживать его до прихода подкрепления. Но этот стратегический объект крайне важен албанскому полевому командиру и натовским генералам. Группа вынуждена принять неравный бой с террористами. К аэродрому устремляются российские миротворцы и силы НАТО. Мир вновь близок к большой войне. Но командиру спецгруппы Андрею Шаталову не до политики: в аэропорту среди заложников его любимая девушка Ясна...



Релиз:

Автор рипа: stalkerok

Сэмпл

Качество видео: BDRip-AVC | Исходник: The.Balkan.Line.2019.COMPLETE.FR.BLURAY-UTT
Формат видео: MKV
Видео кодек: AVC
Аудио кодек: AAC
Видео: AVC, 1274 Кбит/сек, 864x360 (2.40:1), 23,976 кадр/сек
Аудио: AAC, 112 Кбит/сек, 48 КГц, 2.0 - русский | iTunes
Навигация по главам: есть
---[Information] [04.08.2019 16:34:14] x264 [info]: frame I:2000 Avg QP:17.14 size: 33018
---[Information] [04.08.2019 16:34:14] x264 [info]: frame P:48798 Avg QP:19.22 size: 14004
---[Information] [04.08.2019 16:34:14] x264 [info]: frame B:166820 Avg QP:21.83 size: 4176

General
Unique ID : 328692975784725419162999325125816890099 (0xF747F6E6AD5EAA24894073A4C59832F3)
Complete name : C:\temp\Balkanskij rubezh\Balkanskiy.rubezh.2019.BDRip.x264.Rus.stalkerok.New-Team.mkv
Format : Matroska
Format version : Version 4 / Version 2
File size : 1.47 GiB
Duration : 2 h 31 min
Overall bit rate : 1 389 kb/s
Movie name : Балканский рубеж (2019) | Rip by stalkerok
Encoded date : UTC 2019-08-07 11:32:31
Writing application : mkvmerge v33.1.0 ('Primrose') 64-bit
Writing library : libebml v1.3.7 + libmatroska v1.5.0

Video
ID : 1
Format : AVC
Format/Info : Advanced Video Codec
Format profile : High@L4.1
Format settings, CABAC : Yes
Format settings, ReFrames : 12 frames
Codec ID : V_MPEG4/ISO/AVC
Duration : 2 h 31 min
Bit rate : 1 275 kb/s
Width : 864 pixels
Height : 360 pixels
Display aspect ratio : 2.40:1
Frame rate mode : Constant
Frame rate : 23.976 FPS
Color space : YUV
Chroma subsampling : 4:2:0
Bit depth : 8 bits
Scan type : Progressive
Bits/(Pixel*Frame) : 0.171
Stream size : 1.35 GiB (92%)
Title : Балканский рубеж (2019) | Rip by stalkerok
Writing library : x264 core 157 r2945 72db437
Encoding settings : cabac=1 / ref=12 / deblock=1:-3:-2 / analyse=0x3:0x133 / me=umh / subme=11 / psy=1 / psy_rd=1.00:0.00 / mixed_ref=1 / me_range=32 / chroma_me=1 / trellis=2 / 8x8dct=1 / cqm=0 / deadzone=21,11 / fast_pskip=0 / chroma_qp_offset=-2 / threads=11 / lookahead_threads=2 / sliced_threads=0 / nr=0 / decimate=1 / interlaced=0 / bluray_compat=0 / constrained_intra=0 / bframes=14 / b_pyramid=2 / b_adapt=2 / b_bias=0 / direct=3 / weightb=1 / open_gop=0 / weightp=2 / keyint=240 / keyint_min=23 / scenecut=40 / intra_refresh=0 / rc_lookahead=60 / rc=crf / mbtree=0 / crf=19.3 / qcomp=0.65 / qpmin=0 / qpmax=69 / qpstep=4 / vbv_maxrate=50000 / vbv_bufsize=62500 / crf_max=0.0 / nal_hrd=none / filler=0 / ip_ratio=1.40 / pb_ratio=1.30 / aq=3:0.90 / zones=210983,217617,q=34
Default : Yes
Forced : No

Audio
ID : 2
Format : AAC
Format/Info : Advanced Audio Codec
Format profile : LC
Codec ID : A_AAC
Duration : 2 h 31 min
Bit rate : 112 kb/s
Channel(s) : 2 channels
Channel positions : Front: L R
Sampling rate : 48.0 kHz
Frame rate : 46.875 FPS (1024 spf)
Compression mode : Lossy
Delay relative to video : 9 ms
Stream size : 121 MiB (8%)
Title : iTunes
Language : Russian
Default : Yes
Forced : No

Text
ID : 3
Format : UTF-8
Codec ID : S_TEXT/UTF8
Codec ID/Info : UTF-8 Plain Text
Duration : 2 h 15 min
Bit rate : 1 b/s
Count of elements : 5
Stream size : 1.23 KiB (0%)
Title : Forced
Language : Russian
Default : Yes
Forced : No

Menu
00:00:00.000 : :Chapter 01
00:08:49.987 : :Chapter 02
00:22:11.830 : :Chapter 03
00:32:55.598 : :Chapter 04
00:47:48.365 : :Chapter 05
01:00:28.625 : :Chapter 06
01:17:46.578 : :Chapter 07
01:31:32.612 : :Chapter 08
01:46:26.838 : :Chapter 09
02:01:19.272 : :Chapter 10
02:14:36.276 : :Chapter 11
02:26:42.251 : :Chapter 12
pb.wtf



Скачать Балканский рубеж через торрент http://i6.imageban.ru/out/2017/09/18/2ff75c0c358795c5946784cc1680714d.png Скачать фильм Балканский рубеж через торрент бесплантно в хорошем качестве Описание: Югославия. 1999 год. Российская спецгруппа получает приказ взять под контроль аэродром Слатина в Косово и удерживать его до ... 10 10 5
Info! Золотая раздача, скачанное не засчитывается.
Торрент: Зарегистрирован [2019-08-07 14:00] · скачан: 114 раз
Статус: √ проверено
Размер: 1.47 GB
Как cкачать? Как скачать Балканский рубеж через торрент | qTorrent

% Раздел Тема Автор DL S | L
Наши новые фильмы 2018-2019 [ 2.9 GB ] Балканский рубеж [2019 BDRip-AVC] sokol_ok Скачать
33 | 2
Наши новые фильмы 2018-2019 [ 2.81 GB ] Балканский рубеж [2019 BDRip-AVC] 2x [ ] bober100 Скачать
2 | 0
Наши новые фильмы 2018-2019 [ 2.11 GB ] Балканский рубеж [2019 BDRip] [Русский] Twi7ter Скачать
19 | 1
Наши фильмы (Blu-ray, BD-Remux, HDDVD) [ 38.07 GB ] Балканский рубеж [2019 BDRemux 1080p] [FRA Transfer] sheker187 Скачать
1 | 0
Наши фильмы (HD, WEB-DL 720p, 1080p) [ 5.37 GB ] Балканский рубеж [2019 BDRip 720p] bober100 Скачать
2 | 0
Наши новые фильмы 2018-2019 [ 1.46 GB ] Балканский рубеж [2019 BDRip] [Русский] Twi7ter Скачать
19 | 1
Наши фильмы (HD, WEB-DL 720p, 1080p) [ 9.23 GB ] Балканский рубеж [2019 BDRip 1080p] bober100 Скачать
6 | 0


>> Регистрируемся здесь <<






Отзывы и комментарии о схеме читаем и пишем здесь: ---> Отзывы и комментарии о схеме

Новые благодарочки в телеграм довольных пользователей:
скриншот   скриншот   скриншот   скриншот   скриншот
    Дорогой пользователь! Огромная просьба, поблагодарите релизера, оцените раздачу и оставьте свои комментарий, если Вы скачали Балканский рубеж через торрент бесплатно! Внесите свою лепту в развитие PiratBit!
    Комментировать посты могут только пользователи прошедшие не сложную регистрацию
    Показать сообщения:    

    Балканский рубеж через торрент
    Скачать бесплатно Балканский рубеж
    Балканский рубеж скачать торрент
    Балканский рубеж смотреть онлайн
    Cкачать фильм Балканский рубеж бесплатно
    Балканский рубеж скачать торрент в хорошем качестве
    Балканский рубеж смотреть онлайн бесплатно в хорошем качестве


    Вы не можете начинать темы
    Вы не можете отвечать на сообщения
    Вы не можете редактировать свои сообщения
    Вы не можете удалять свои сообщения
    Вы не можете голосовать в опросах
    Вы не можете прикреплять файлы к сообщениям
    Вы можете скачивать файлы