новый адрес
Ссылка на приватное зеркало всего за 1$. Внимание количество ограничено!!!

iTunes

1+1

iTunes

мы

WEB-DL

1

iTunes

Чернобыль

iTunes

Ральф против интернета

Лицензия

ПШазам

Лицензия

Оно 2

Лицензия

30
pack

Вам бонус

ВАЖНО

!!Акция!!

Alien_RageХит недели

RePack

Resident Evil 21

ИГРА 18+

pack

RePack

jed

!!Акция!!

Alien_Rage

RePack

fifa19

RePack

Assassins Creed: Odyssey

RePack

NEED FOR SPEED™ PAYBACK

3 сезон

9 сезон

Бесстыжие 9 сезон

Все сериалы

все сериалы на PB.wtf

RePack

FAR CRY 5
Ребята, катастрофически не хватает 1900р. для оплаты серверов за Октябрь (всвязи с блокировками трафик упал в 3 раза), 1-2р., выручайте.
  

Мальтийский Сокол / The Maltese Falcon (Джон Хьюстон / John Huston) [1941, фильм-нуар, криминал, детектив, BDRip 1080p] [Dub] + 5x[MVO] (Фортуна Фильм, CВ-Дубль, Somewax, Film Prestige, НТВ+) pb.wtf

Мальтийский Сокол через торрент pb.wtf

Размер: 11.4 GB | Добавлен: 4 мес. 1 д. назад | Торрент скачан:0 раз
Скачать  

07-08-2019 18:55 Мальтийский Сокол Скачать торрент  


Мальтийский Сокол
The Maltese Falcon

Год выпуска: 1941
Производство: Warner Bros.
Страна: США
Жанр: Нуар, Криминал, Детектив
Продолжительность: 01:40:31
Перевод 1: Дублированный
Перевод 2: Профессиональный (многоголосный закадровый)| Фортуна Фильм
Перевод 3: Профессиональный (многоголосный закадровый)| СВ-Дубль
Перевод 4: Профессиональный (многоголосный закадровый)| Film Prestige
Перевод 5: Профессиональный (многоголосный закадровый)| Somewax
Перевод 6: Профессиональный (многоголосный закадровый)| НТВ+

Режиссер: Джон Хьюстон / John Huston

В ролях: Хамфри Богарт / Humphrey Bogart/, Мэри Астор / Mary Astor/, Питер Лорр / Peter Lorre/, Сидни Гринстрит / Sydney Greenstreet/, Уолтер Хьюстон / Walter Huston/, Ли Патрик / Lee Patrick/, Бартон МакЛэйн / Barton MacLane/, Уорд Бонд / Ward Bond/, Элиша Кук-младший / Elisha Cook, Jr./, Глэдис Джордж / Gladys George/, Джером Кауэн / Jerome Cowan

Описание: Частный детектив Сэм Спэйд начинает смертельную охоту за таинственно исчезнувшей бесценной статуэткой «мальтийского сокола».
Эта реликвия пришла в современный мир из глубины веков и символизирует собою возможность управления людьми, народами, странами. Человечеством, в конце концов. Более-менее подкованному человеку известно, что миром правят секретные ордены и организации, а поэтому интерес к этой теме вечен и непререкаем. (kinopoisk.ru)

rating

Качество: BDRip 1080p
Формат: Matroska
Видео: x264, 1480х1080 [4:3], 14.5 Mbps, 23.976 fps
Аудио 1: Russian, AC3 1.0 @ 128 kbps |Многоголосный закадровый, Фортуна Фильм|
Аудио 2: Russian, AC3 2.0 @ 192 kbps |Многоголосный закадровый, СВ-Дубль|
Аудио 3: Russian, AC3 1.0 @ 128 kbps |Многоголосный закадровый, Film Prestige|
Аудио 4: Russian, AC3 1.0 @ 128 kbps |Многоголосный закадровый, Somewax|
Аудио 5: Russian, AC3 1.0 @ 128.00 kbps avg |Многоголосый закадровый, НТВ+|
Аудио 6: Russian, AC3 2.0 @ 192 kbps |Дубляж, Варус Видео|
Аудио 7: English, DTS 1.0 @ 768.00 kbps avg |Оригинал|
Субтитры: Русские, Английские
Производственный период: 9 июня – 18 июля 1941.
Хьюстон, получивший свой первый режиссерский проект, со сценарием мудрить не стал; поклонники романа отмечают, что весь фильм – практически дословное, сцена за сценой, повторение литературного первоисточника. Зато он досконально продумал каждую мизансцену, каждый проезд камеры и каждый длинный план. Безукоризненное мастерство Хьюстона и оператора Артура Эдесона можно отметить хотя бы по семиминутному проезду камеры, которая сначала следует за Спэйдом и Гутманом из комнаты в комнату, затем идет вниз вдоль длинной прихожей, чтобы оттуда перебраться в гостиную, затем панорамирует слева направо и останавливается на пьяном лице Спэйда. На репетицию этой сцены ушло два дня.
Роль Бриджид О’Шонесси предлагали 27-летней Джеральдин Фицжералд. Руководству студии действительно хотелось получить на эту роль малоизвестную актрису. Но Джеральдин от роли отказалась, и по иронии судьбы она досталась кинозвезде Мэри Астор. Другими кандидатками на роль были Оливия де Хэвилэнд, Рита Хэйуорт и Ингрид Бергман.
Для фильма пришлось изготовить две статуэтки Мальтийского сокола – одного из них Богарт уронил во время съемок.
В одной из сцен мелькает порванный плакат к фильму Рэя Энрайта «Покачай свою леди» (1938), в котором главную роль сыграл Богарт.
Финальную ссылку на Шекспира предложил Хамфри Богарт.
Кульминационное противостояние пяти главных героев длится около 20 минут, то есть, одну пятую часть всего фильма. Сцену репетировали целую неделю, за исключение одного дня – съемки выпали на 4 июля.
Классическую фразу Богарта, что мальтийский сокол сделан «из того же, из чего сделаны мечты» Американский киноинститут поставил на 14 место в списке самых запоминающихся цитат в истории кино.
Рабочим названием фильма было «Джентльмен из Фриско».
В пародийном фильме 1975 года «Чёрный дрозд» (The Black Bird) Элайша Кук и Ли Патрик вновь сыграли свои роли из «Мальтийского Сокола»
Эпизодическую роль раненого капитана, который принёс статуэтку сокола в офис Спейда, сыграл отец режиссёра — Уолтер Хьюстон. За своё появление в кадре он не получил ни цента.
Почти во всех сценах, где появляется героиня Мэри Астор, содержатся визуальные намёки на то, что она окажется за решёткой. То она носит полосатую пижаму, но на неё падает полосами свет от жалюзи, прутья решётки напоминает рисунок на мебели и т.д.
Выход фильма на экраны пришлось отложить по той причине, что ревнители общественной нравственности настаивали на смягчении ругательств, которые вылетают из уст Спейда, а также на притушёвывании нетрадиционной ориентации Толстяка, Кайро и Уилмера (на которую недвусмысленно указывается в книге).
Роберт Сербер в своих воспоминаниях утверждал, что назвал атомную бомбу, сброшенную на Нагасаки, «толстяком» в честь одного из персонажей «Мальтийского сокола».

General
Format : Matroska
File size : 11.4 GiB
Duration : 1h 40mn
Overall bit rate : 16.2 Mbps
Movie name :
Encoded date : UTC 2011-05-21 15:55:21
Writing application : mkvmerge v4.7.0 ('Just Like You Imagined') сборка от Apr 21 2011 01:13:14
Writing library : libebml v1.2.0 + libmatroska v1.1.0
Cover : Yes / Yes / Yes

Video
ID : 1
Format : AVC
Format/Info : Advanced Video Codec
Format profile : High@L4.1
Format settings, CABAC : Yes
Format settings, ReFrames : 5 frames
Codec ID : V_MPEG4/ISO/AVC
Duration : 1h 40mn
Bit rate : 14.5 Mbps
Width : 1 480 pixels
Height : 1 080 pixels
Display aspect ratio : 1.370
Frame rate : 23.976 fps
Color space : YUV
Chroma subsampling : 4:2:0
Bit depth : 8 bits
Scan type : Progressive
Bits/(Pixel*Frame) : 0.378
Stream size : 9.97 GiB (87%)
Title : 12500 kbps
Writing library : x264 core 98 r1629 2e81ce1
Encoding settings : cabac=1 / ref=5 / deblock=1:-3:-3 / analyse=0x3:0x133 / me=umh / subme=10 / psy=1 / psy_rd=0.80:0.00 / mixed_ref=1 / me_range=48 / chroma_me=1 / trellis=2 / 8x8dct=1 / cqm=0 / deadzone=21,11 / fast_pskip=0 / chroma_qp_offset=-2 / threads=12 / sliced_threads=0 / nr=0 / decimate=0 / interlaced=0 / constrained_intra=0 / bframes=6 / b_pyramid=2 / b_adapt=2 / b_bias=0 / direct=3 / weightb=1 / weightp=2 / keyint=250 / keyint_min=25 / scenecut=40 / intra_refresh=0 / rc_lookahead=40 / rc=2pass / mbtree=1 / bitrate=14500 / ratetol=1.0 / qcomp=0.60 / qpmin=10 / qpmax=51 / qpstep=4 / cplxblur=20.0 / qblur=0.5 / ip_ratio=1.40 / aq=1:0.80
Language : English

Audio #1
ID : 2
Format : AC-3
Format/Info : Audio Coding 3
Mode extension : CM (complete main)
Codec ID : A_AC3
Duration : 1h 40mn
Bit rate mode : Constant
Bit rate : 128 Kbps
Channel(s) : 1 channel
Channel positions : Front: C
Sampling rate : 48.0 KHz
Bit depth : 16 bits
Compression mode : Lossy
Stream size : 92.1 MiB (1%)
Title : AC3 1.0 @ 128 kbps |Многоголосный закадровый, Фортуна Фильм|
Language : Russian

Audio #2
ID : 3
Format : AC-3
Format/Info : Audio Coding 3
Mode extension : CM (complete main)
Codec ID : A_AC3
Duration : 1h 40mn
Bit rate mode : Constant
Bit rate : 192 Kbps
Channel(s) : 2 channels
Channel positions : Front: L R
Sampling rate : 48.0 KHz
Bit depth : 16 bits
Compression mode : Lossy
Stream size : 138 MiB (1%)
Title : AC3 2.0 @ 192 kbps |Многоголосный закадровый, СВ-Дубль|
Language : Russian

Audio #3
ID : 4
Format : AC-3
Format/Info : Audio Coding 3
Mode extension : CM (complete main)
Codec ID : A_AC3
Duration : 1h 40mn
Bit rate mode : Constant
Bit rate : 192 Kbps
Channel(s) : 1 channel
Channel positions : Front: C
Sampling rate : 48.0 KHz
Bit depth : 16 bits
Compression mode : Lossy
Stream size : 138 MiB (1%)
Title : AC3 1.0 @ 128 kbps |Многоголосный закадровый, Film Prestige|
Language : Russian

Audio #4
ID : 5
Format : AC-3
Format/Info : Audio Coding 3
Mode extension : CM (complete main)
Codec ID : A_AC3
Duration : 1h 40mn
Bit rate mode : Constant
Bit rate : 128 Kbps
Channel(s) : 1 channel
Channel positions : Front: C
Sampling rate : 48.0 KHz
Bit depth : 16 bits
Compression mode : Lossy
Stream size : 92.1 MiB (1%)
Title : AC3 1.0 @ 128 kbps |Многоголосный закадровый, Somewax|
Language : Russian

Audio #5
ID : 6
Format : AC-3
Format/Info : Audio Coding 3
Mode extension : CM (complete main)
Codec ID : A_AC3
Duration : 1h 40mn
Bit rate mode : Constant
Bit rate : 128 Kbps
Channel(s) : 1 channel
Channel positions : Front: C
Sampling rate : 48.0 KHz
Bit depth : 16 bits
Compression mode : Lossy
Stream size : 92.1 MiB (1%)
Title : AC3 1.0 @ 128.00 kbps avg |Многоголосый закадровый, НТВ+|
Language : Russian

Audio #6
ID : 7
Format : AC-3
Format/Info : Audio Coding 3
Mode extension : CM (complete main)
Codec ID : A_AC3
Duration : 1h 40mn
Bit rate mode : Constant
Bit rate : 192 Kbps
Channel(s) : 2 channels
Channel positions : Front: L R
Sampling rate : 48.0 KHz
Bit depth : 16 bits
Compression mode : Lossy
Stream size : 138 MiB (1%)
Title : AC3 2.0 @ 192 kbps |Дубляж, Варус Видео|
Language : Russian

Audio #7
ID : 8
Format : DTS
Format/Info : Digital Theater Systems
Codec ID : A_DTS
Duration : 1h 40mn
Bit rate mode : Constant
Bit rate : 755 Kbps
Channel(s) : 1 channel
Channel positions : Front: C
Sampling rate : 48.0 KHz
Bit depth : 24 bits
Compression mode : Lossy
Stream size : 543 MiB (5%)
Title : DTS 1.0 @ 768kbps |Оригинал|
Language : English

Text #1
ID : 9
Format : UTF-8
Codec ID : S_TEXT/UTF8
Codec ID/Info : UTF-8 Plain Text
Language : Russian

Text #2
ID : 10
Format : ASS
Codec ID : S_TEXT/ASS
Codec ID/Info : Advanced Sub Station Alpha
Compression mode : Lossless
Language : English
скриншот  скриншот  скриншот  
pb.wtf



Скачать Мальтийский Сокол через торрент https://i86.fastpic.ru/big/2019/0807/d9/5424ae2cd1fa3cf37dd5d41f3ffa3fd9.jpg Скачать фильм Мальтийский Сокол через торрент бесплантно в хорошем качестве Описание: Частный детектив Сэм Спэйд начинает смертельную охоту за таинственно исчезнувшей бесценной статуэткой «мальтийского сокола».Эта ... 10 10 1
Info! Золотая раздача, скачанное не засчитывается.
Торрент: Зарегистрирован [2019-08-07 18:55] · скачан: 0 раз
Статус: √ проверено
Размер: 11.4 GB
Как cкачать? Как скачать Мальтийский Сокол через торрент | qTorrent

% Раздел Тема Автор DL S | L
Классика зарубежного кино [ 1.46 GB ] Мальтийский сокол / The Maltese Falcon [1941 фильм-нуар BDRip] killermax2013 Скачать
1 | 0
Фильмы [HD 720p, 1080p] (Хороший звук DUB, MVO) [ 7.58 GB ] Мальтийский сокол / The Maltese Falcon [1941 фильм-нуар BDRip 720p от _denis_100 / NNNB] DUB + 4xMVO + Original + Sub _denis_100 Скачать
1 | 0

28-11-2019 20:33  

Отключить всю рекламу на сайте

    Дорогой пользователь! Огромная просьба, поблагодарите релизера, оцените раздачу и оставьте свои комментарий, если Вы скачали Мальтийский Сокол через торрент бесплатно! Внесите свою лепту в развитие PiratBit!
    Комментировать посты могут только пользователи прошедшие не сложную регистрацию
    Показать сообщения:    

    Мальтийский Сокол через торрент
    Скачать бесплатно Мальтийский Сокол
    Мальтийский Сокол скачать торрент
    Мальтийский Сокол смотреть онлайн
    Cкачать фильм Мальтийский Сокол бесплатно
    Мальтийский Сокол скачать торрент в хорошем качестве
    Мальтийский Сокол смотреть онлайн бесплатно в хорошем качестве


    Вы не можете начинать темы
    Вы не можете отвечать на сообщения
    Вы не можете редактировать свои сообщения
    Вы не можете удалять свои сообщения
    Вы не можете голосовать в опросах
    Вы не можете прикреплять файлы к сообщениям
    Вы можете скачивать файлы