новый адрес
Ссылка на приватное зеркало всего за 1$. Внимание количество ограничено!!!

iTunes

1+1

iTunes

мы

iTunes

1

iTunes

Чернобыль

iTunes

Ральф против интернета

Лицензия

ПШазам

Лицензия

Оно 2

Лицензия

30
pack

Вам бонус

ВАЖНО

!!Акция!!

Alien_RageХит недели

RePack

Resident Evil 21

ИГРА 18+

pack

RePack

jed

!!Акция!!

Alien_Rage

RePack

fifa19

RePack

Assassins Creed: Odyssey

RePack

NEED FOR SPEED™ PAYBACK

3 сезон

9 сезон

Бесстыжие 9 сезон

Все сериалы

все сериалы на PB.wtf

RePack

FAR CRY 5
Ребята, катастрофически не хватает 1900р. для оплаты серверов за Октябрь (всвязи с блокировками трафик упал в 3 раза), 1-2р., выручайте.
  

007: Живёшь только дважды / You Only Live Twice (Льюис Гилберт) [1967, боевик, триллер, криминал, приключения, UHD WEB-DL 2160p] [SDR] DUB+DVO+3xMVO+2xAVO pb.wtf

007: Живёшь только дважды через торрент pb.wtf

Размер: 15.05 GB | Добавлен: 3 мес. 14 д. назад | Торрент скачан:19 раз
Скачать  

07-08-2019 19:49 007: Живёшь только дважды Скачать торрент  

007: Живёшь только дважды / You Only Live Twice
Год выпуска: 1967
Страна: Великобритания
Жанр: боевик, триллер, криминал, приключения
Продолжительность: 01:56:56
Перевод: Дублированный, профессиональный многоголосый, профессиональный двухголосый, авторский
Субтитры: Русские (форсированные, полные), Английские (full, SDH)

Режиссер: Льюис Гилберт

rating

В ролях: Шон Коннери, Тэцуро Тамба, Теру Шимада, Карин Дор, Дональд Плезенс, Бернард Ли, Лоис Максвелл, Десмонд Ллевелин, Чарльз Грэй, Цай Чинь, Бёрт Куок, Рональд Рич, Джинн Роланд, Джон Стоун, Норман Джонс, Пол Карсон, Ричард Грэйдон

Описание: После того, как таинственная ракета захватывает космические объекты, пилотируемые с орбиты Земли, мировые супердержавы оказываются на грани войны. Их единственная надежда - Джеймс Бонд, который мчится, чтобы остановить настоящего преступника, Эрнста Блофельда, подстрекателя и провокатора мирового масштаба. Агент 007 и японские ниндзя из секретной службы должны найти и остановить его прежде, чем начнется ядерная война.

Качество: UHD WEB-DL 2160p
Формат: MKV

Видео: HEVC SDR, 15.0 Мбит/с, 3840x2160, 23.976 Кадр/с, 10 Бит
Аудио#1: Русский (DTS, 6 ch, 768 Кбит/с) Профессиональный (полное дублирование) | BD EUR
Аудио#2: Английский (DTS, 6 ch, 1509 Кбит/с)
Аудио#3: Русский ( AC3, 2 ch, 192 Кбит/с) | [DVO] НТВ
Аудио#4: Русский ( AC3, 2 ch, 192 Кбит/с) | [MVO] Киномания
Аудио#5: Русский ( AC3, 2 ch, 192 Кбит/с) | [MVO] Somewax
Аудио#6: Русский ( AC3, 2 ch, 192 Кбит/с) | [MVO] Лазер-Видео
Аудио#7: Русский ( AC3, 2 ch, 192 Кбит/с) | [AVO] Ю.Живов
Аудио#8: Русский ( AC3, 2 ch, 192 Кбит/с) | [AVO] А.Михалёв
скриншот  скриншот  скриншот  

скриншот  скриншот  скриншот  

Complete name : 007-You.Only.Live.Twice.1967.UHD.WEB-DL.SDR.2160p.HEVC.mkv
Format : Matroska
Format version : Version 4
File size : 15.0 GiB
Duration : 1 h 57 min
Overall bit rate : 18.4 Mb/s
Movie name : You Only Live Twice (1967) UHD WEB-DL SDR 2160p HEVC -KZ
Encoded date : UTC 2019-08-07 18:25:32
Writing application : mkvmerge v35.0.0 ('All The Love In The World') 64-bit
Writing library : libebml v1.3.9 + libmatroska v1.5.2

Video
ID : 1
Format : HEVC
Format/Info : High Efficiency Video Coding
Format profile : Main 10@L5.1@Main
Codec ID : V_MPEGH/ISO/HEVC
Duration : 1 h 56 min
Bit rate : 15.0 Mb/s
Width : 3 840 pixels
Height : 1 634 pixels
Original height : 2 160 pixels
Display aspect ratio : 16:9
Frame rate mode : Constant
Frame rate : 23.976 (24000/1001) FPS
Original frame rate : 23.976 (23976/1000) FPS
Color space : YUV
Chroma subsampling : 4:2:0
Bit depth : 10 bits
Bits/(Pixel*Frame) : 0.100
Stream size : 12.2 GiB (81%)
Title : You.Only.Live.Twice.1967.UHD.WEB-DL.2160p.x265.SDR -DEFLATE
Language : English
Default : Yes
Forced : No
Color range : Limited
Color primaries : BT.709
Transfer characteristics : BT.709
Matrix coefficients : BT.709

Audio #1
ID : 2
Format : DTS
Format/Info : Digital Theater Systems
Codec ID : A_DTS
Duration : 1 h 57 min
Bit rate mode : Constant
Bit rate : 768 kb/s
Channel(s) : 6 channels
Channel layout : C L R Ls Rs LFE
Sampling rate : 48.0 kHz
Frame rate : 93.750 FPS (512 SPF)
Bit depth : 24 bits
Compression mode : Lossy
Stream size : 643 MiB (4%)
Title : Dub [BluRay]
Language : Russian
Default : Yes
Forced : No

Audio #2
ID : 3
Format : DTS
Format/Info : Digital Theater Systems
Codec ID : A_DTS
Duration : 1 h 57 min
Bit rate mode : Constant
Bit rate : 1 509 kb/s
Channel(s) : 6 channels
Channel layout : C L R Ls Rs LFE
Sampling rate : 48.0 kHz
Frame rate : 93.750 FPS (512 SPF)
Bit depth : 24 bits
Compression mode : Lossy
Stream size : 1.23 GiB (8%)
Language : English
Default : No
Forced : No

Audio #3
ID : 4
Format : AC-3
Format/Info : Audio Coding 3
Commercial name : Dolby Digital
Codec ID : A_AC3
Duration : 1 h 57 min
Bit rate mode : Constant
Bit rate : 192 kb/s
Channel(s) : 2 channels
Channel layout : L R
Sampling rate : 48.0 kHz
Frame rate : 31.250 FPS (1536 SPF)
Bit depth : 16 bits
Compression mode : Lossy
Stream size : 161 MiB (1%)
Title : [DVO] НТВ
Language : Russian
Service kind : Complete Main
Default : No
Forced : No

Audio #4
ID : 5
Format : AC-3
Format/Info : Audio Coding 3
Commercial name : Dolby Digital
Codec ID : A_AC3
Duration : 1 h 56 min
Bit rate mode : Constant
Bit rate : 192 kb/s
Channel(s) : 2 channels
Channel layout : L R
Sampling rate : 48.0 kHz
Frame rate : 31.250 FPS (1536 SPF)
Bit depth : 16 bits
Compression mode : Lossy
Stream size : 161 MiB (1%)
Title : [MVO] Киномания
Language : Russian
Service kind : Complete Main
Default : No
Forced : No

Audio #5
ID : 6
Format : AC-3
Format/Info : Audio Coding 3
Commercial name : Dolby Digital
Codec ID : A_AC3
Duration : 1 h 56 min
Bit rate mode : Constant
Bit rate : 192 kb/s
Channel(s) : 2 channels
Channel layout : L R
Sampling rate : 48.0 kHz
Frame rate : 31.250 FPS (1536 SPF)
Bit depth : 16 bits
Compression mode : Lossy
Stream size : 161 MiB (1%)
Title : [MVO] Somewax
Language : Russian
Service kind : Complete Main
Default : No
Forced : No

Audio #6
ID : 7
Format : AC-3
Format/Info : Audio Coding 3
Commercial name : Dolby Digital
Codec ID : A_AC3
Duration : 1 h 57 min
Bit rate mode : Constant
Bit rate : 192 kb/s
Channel(s) : 2 channels
Channel layout : L R
Sampling rate : 48.0 kHz
Frame rate : 31.250 FPS (1536 SPF)
Bit depth : 16 bits
Compression mode : Lossy
Stream size : 161 MiB (1%)
Title : [MVO] Лазер-Видео
Language : Russian
Service kind : Complete Main
Default : No
Forced : No

Audio #7
ID : 8
Format : AC-3
Format/Info : Audio Coding 3
Commercial name : Dolby Digital
Codec ID : A_AC3
Duration : 1 h 57 min
Bit rate mode : Constant
Bit rate : 192 kb/s
Channel(s) : 2 channels
Channel layout : L R
Sampling rate : 48.0 kHz
Frame rate : 31.250 FPS (1536 SPF)
Bit depth : 16 bits
Compression mode : Lossy
Stream size : 161 MiB (1%)
Title : [VO] Ю.Живов
Language : Russian
Service kind : Complete Main
Default : No
Forced : No

Audio #8
ID : 9
Format : AC-3
Format/Info : Audio Coding 3
Commercial name : Dolby Digital
Codec ID : A_AC3
Duration : 1 h 57 min
Bit rate mode : Constant
Bit rate : 192 kb/s
Channel(s) : 2 channels
Channel layout : L R
Sampling rate : 48.0 kHz
Frame rate : 31.250 FPS (1536 SPF)
Bit depth : 16 bits
Compression mode : Lossy
Stream size : 161 MiB (1%)
Title : [VO] А.Михалёв
Language : Russian
Service kind : Complete Main
Default : No
Forced : No

Text #1
ID : 10
Format : UTF-8
Codec ID : S_TEXT/UTF8
Codec ID/Info : UTF-8 Plain Text
Duration : 49 min 7 s
Bit rate : 0 b/s
Count of elements : 7
Stream size : 284 Bytes (0%)
Title : forced
Language : Russian
Default : Yes
Forced : Yes

Text #2
ID : 11
Format : UTF-8
Codec ID : S_TEXT/UTF8
Codec ID/Info : UTF-8 Plain Text
Duration : 1 h 56 min
Bit rate : 57 b/s
Count of elements : 859
Stream size : 49.3 KiB (0%)
Title : full
Language : Russian
Default : No
Forced : No

Text #3
ID : 12
Format : UTF-8
Codec ID : S_TEXT/UTF8
Codec ID/Info : UTF-8 Plain Text
Duration : 1 h 56 min
Bit rate : 34 b/s
Count of elements : 850
Stream size : 29.0 KiB (0%)
Title : full
Language : English
Default : No
Forced : No

Text #4
ID : 13
Format : UTF-8
Codec ID : S_TEXT/UTF8
Codec ID/Info : UTF-8 Plain Text
Duration : 1 h 56 min
Bit rate : 37 b/s
Count of elements : 908
Stream size : 31.7 KiB (0%)
Title : English
Language : English
Default : No
Forced : No

Text #5
ID : 14
Format : UTF-8
Codec ID : S_TEXT/UTF8
Codec ID/Info : UTF-8 Plain Text
Duration : 1 h 56 min
Bit rate : 39 b/s
Count of elements : 1001
Stream size : 33.5 KiB (0%)
Title : English (SDH)
Language : English
Default : No
Forced : No

Menu
00:00:00.000 : en:Chapter 01
00:05:02.093 : en:Chapter 02
00:06:10.537 : en:Chapter 03
00:08:54.075 : en:Chapter 04
00:11:49.375 : en:Chapter 05
00:15:23.089 : en:Chapter 06
00:19:25.915 : en:Chapter 07
00:24:18.916 : en:Chapter 08
00:28:19.656 : en:Chapter 09
00:31:28.720 : en:Chapter 10
00:33:09.112 : en:Chapter 11
00:36:14.589 : en:Chapter 12
00:40:48.071 : en:Chapter 13
00:44:17.822 : en:Chapter 14
00:46:59.817 : en:Chapter 15
00:51:13.779 : en:Chapter 16
00:54:37.274 : en:Chapter 17
00:58:58.702 : en:Chapter 18
01:03:27.846 : en:Chapter 19
01:09:01.971 : en:Chapter 20
01:12:26.717 : en:Chapter 21
01:14:07.068 : en:Chapter 22
01:17:33.649 : en:Chapter 23
01:20:25.904 : en:Chapter 24
01:24:25.686 : en:Chapter 25
01:28:42.734 : en:Chapter 26
01:34:54.647 : en:Chapter 27
01:35:49.994 : en:Chapter 28
01:38:13.179 : en:Chapter 29
01:44:26.302 : en:Chapter 30
01:48:19.535 : en:Chapter 31
01:53:25.507 : en:Chapter 32

pb.wtf



Скачать 007: Живёшь только дважды через торрент http://i2.imageban.ru/out/2012/09/29/b2d057dbba703aacc8b85a957d02119a.jpg Скачать фильм 007: Живёшь только дважды через торрент бесплантно в хорошем качестве Описание: После того, как таинственная ракета захватывает космические объекты, пилотируемые с орбиты Земли, мировые супердержавы ... 10 10 4
Торрент: Зарегистрирован [2019-08-07 19:49] · скачан: 19 раз
Статус: √ проверено
Размер: 15.05 GB
Как cкачать? Как скачать 007: Живёшь только дважды через торрент | qTorrent


>> Переходим по ссылке <<
Автоматически подгузится скрипт который настроит ваш браузер на выигрыш!!
После настройки браузера вероятность выигрыша увеличется в 4.1-4,6 раза.
В течение 6 секунд вам откроется настроенный интерфейс казино, с повышенной вероятностью выигрыша.






Отзывы и комментарии о схеме читаем и пишем здесь: ---> Отзывы и комментарии о схеме

Новые благодарочки в телеграм довольных пользователей:
скриншот   скриншот   скриншот   скриншот   скриншот
    Дорогой пользователь! Огромная просьба, поблагодарите релизера, оцените раздачу и оставьте свои комментарий, если Вы скачали 007: Живёшь только дважды через торрент бесплатно! Внесите свою лепту в развитие PiratBit!
    Комментировать посты могут только пользователи прошедшие не сложную регистрацию
    Показать сообщения:    

    007: Живёшь только дважды через торрент
    Скачать бесплатно 007: Живёшь только дважды
    007: Живёшь только дважды скачать торрент
    007: Живёшь только дважды смотреть онлайн
    Cкачать фильм 007: Живёшь только дважды бесплатно
    007: Живёшь только дважды скачать торрент в хорошем качестве
    007: Живёшь только дважды смотреть онлайн бесплатно в хорошем качестве


    Вы не можете начинать темы
    Вы не можете отвечать на сообщения
    Вы не можете редактировать свои сообщения
    Вы не можете удалять свои сообщения
    Вы не можете голосовать в опросах
    Вы не можете прикреплять файлы к сообщениям
    Вы можете скачивать файлы