Ссылка на приватное зеркало всего за 1$. Внимание количество ограничено!!!

iTunes

iTunes

iTunes

1

iTunes

iTunes

iTunes

iTunes

iTunes

30
pack

$ от Little Big

ВАЖНО

!!Акция!!

Alien_RageХит недели

RePack

Resident Evil 21

ИГРА 18+

pack

RePack

jed

!!Акция!!

Alien_Rage

RePack

fifa19

RePack

Assassins Creed: Odyssey

RePack

NEED FOR SPEED™ PAYBACK

4 сезон

9 сезон

Бесстыжие 9 сезон

Все сериалы

все сериалы на PB.wtf

RePack

FAR CRY 5
  

Курск / Kursk (Томас Винтерберг) [2018, боевик, триллер, драма, история, BDRip] DUB [iTunes] pb.wtf

Курск через торрент pb.wtf

Раздают: 2 [ 0 KB/s ]
Размер: 1.46 GB | Добавлен: 11 мес. назад | Торрент скачан:132 раза
Скачать  

07-08-2019 19:56 Курск Скачать торрент  

Курск / Kursk
Год выпуска: 2018
Страна: Бельгия, Люксембург
Жанр: боевик, триллер, драма, история
Продолжительность: 01:57:38
Перевод: Дублированный | iTunes
Субтитры: отсутствуют

Режиссер: Томас Винтерберг

rating

В ролях: Леа Сейду, Колин Фёрт, Маттиас Шонартс, Микаэл Нюквист, Макс фон Сюдов, Аугуст Диль, Стивен Вэддингтон, Маттиас Швайгхёфер, Пернилла Аугуст, Златко Бурич

Описание: Фильм о событиях 2000 года, связанных с подлодкой «Курск». Вся правда о мужестве и стойкости российских подводников, о разногласиях и взаимопомощи, конфликтах и единении, о преданности и любви.

Качество: BDRip
Формат: AVI

Видео: Xvid 73, 720x304, ~1381 kbps, 24,000 fps
Аудио: русский, AC3, 5.1 ch, 48 kHz, 384 kbps | iTunes
скриншот  скриншот  скриншот  скриншот  скриншот  

Общее
Полное имя : E:Torrent2KurskBDRip.avi
Формат : AVI
Формат/Информация : Audio Video Interleave
Профиль формата : OpenDML
Размер файла : 1,46 Гбайт
Продолжительность : 1 ч. 57 м.
Общий поток : 1776 Кбит/сек
Программа кодирования : XviD4PSP 6.0 / 53.6.0

Видео
Идентификатор : 0
Формат : MPEG-4 Visual
Профиль формата : Advanced Simple@L5
Настройки формата : BVOP1 / Custom Matrix
Параметр BVOP формата : 1
Параметр QPel формата : Нет
Параметр GMC формата : Без точки перехода
Параметр матрицы формата : Выборочная
Идентификатор кодека : XVID
Идентификатор кодека/Подсказка : XviD
Продолжительность : 1 ч. 57 м.
Битрейт : 1381 Кбит/сек
Ширина : 720 пикселей
Высота : 304 пикселя
Соотношение сторон : 2,35:1
Частота кадров : 24,000 кадра/сек
Цветовое пространство : YUV
Субдискретизация насыщенности : 4:2:0
Битовая глубина : 8 бит
Тип развёртки : Прогрессивная
Метод сжатия : С потерями
Бит/(Пиксели*Кадры) : 0.263
Размер потока : 1,13 Гбайт (78%)
Библиотека кодирования : XviD 73

Аудио
Идентификатор : 1
Формат : AC-3
Формат/Информация : Audio Coding 3
Параметр Endianness формата : Big
Идентификатор кодека : 2000
Продолжительность : 1 ч. 57 м.
Вид битрейта : Постоянный
Битрейт : 384 Кбит/сек
Каналы : 6 каналов
Расположение каналов : Front: L C R, Side: L R, LFE
Частота : 48,0 КГц
Частота кадров : 31,250 кадров/сек (1536 SPF)
Битовая глубина : 16 бит
Метод сжатия : С потерями
Размер потока : 323 Мбайт (22%)
Выравнивание : Соединение по промежуткам
Продолжительность промежутка : 32 мс. (0,77 видеокадр)

pb.wtf



Скачать Курск через торрент http://lostpix.com/thumbs/2019-08/07/srh9dly6owtw6ikz91wijkf2c.png Скачать фильм Курск через торрент бесплантно в хорошем качестве Описание: Фильм о событиях 2000 года, связанных с подлодкой «Курск». Вся правда о мужестве и стойкости российских подводников, о ... 9.2 10 11
Торрент: Зарегистрирован [2019-08-07 19:56] · скачан: 132 раз
Статус: √ проверено
Размер: 1.46 GB
Как cкачать? Как скачать Курск через торрент | qTorrent

% Раздел Тема Автор DL S | L
Фильмы [HD 720p, 1080p] (Хороший звук DUB, MVO) [ 7.65 GB ] Курск / Kursk [2018 история BDRip 1080p] +MVO [HDRezka Studio] bober100 Скачать
1 | 1
Фильмы 2018 [DVDrip, WEB-DLRip, HDrip] (DUB, MVO) [ 1.51 GB ] Курск / Kursk [2018 история BDRip-AVC] sokol_ok Скачать
2 | 0
Фильмы 2018 [DVDrip, WEB-DLRip, HDrip] (DUB, MVO) [ 746 MB ] Курск / Kursk [2018 история BDRip-AVC] sokol_ok Скачать
4 | 1
Фильмы 2018 [DVDrip, WEB-DLRip, HDrip] (DUB, MVO) [ 2.18 GB ] Курск / Kursk [2018 история BDRip-AVC] sokol_ok Скачать
12 | 0
Фильмы 2018 [DVDrip, WEB-DLRip, HDrip] (DUB, MVO) [ 746 MB ] Курск / Kursk [2018 история BDRip] bober100 Скачать
1 | 0
Фильмы 2018 [DVDrip, WEB-DLRip, HDrip] (DUB, MVO) [ 1.46 GB ] Курск / Kursk [2018 история BDRip-AVC] +MVO [HDRezka Studio] bober100 Скачать
1 | 0
Фильмы 2018 [DVDrip, WEB-DLRip, HDrip] (DUB, MVO) [ 2.18 GB ] Курск / Kursk [2018 история BDRip] bober100 Скачать
1 | 0

28-11-2019 20:33  

Отключить всю рекламу на сайте

    Дорогой пользователь! Огромная просьба, поблагодарите релизера, оцените раздачу и оставьте свои комментарий, если Вы скачали Курск через торрент бесплатно! Внесите свою лепту в развитие PiratBit!
    Комментировать посты могут только пользователи прошедшие не сложную регистрацию
    Показать сообщения:    

    Курск через торрент
    Скачать бесплатно Курск
    Курск скачать торрент
    Курск смотреть онлайн
    Cкачать фильм Курск бесплатно
    Курск скачать торрент в хорошем качестве
    Курск смотреть онлайн бесплатно в хорошем качестве


    Вы не можете начинать темы
    Вы не можете отвечать на сообщения
    Вы не можете редактировать свои сообщения
    Вы не можете удалять свои сообщения
    Вы не можете голосовать в опросах
    Вы не можете прикреплять файлы к сообщениям
    Вы можете скачивать файлы