Ссылка на приватное зеркало всего за 1$. Внимание количество ограничено!!!

OK

1+1

iTunes

мы

OK

1

WEB-DLRip

Джокер

Пифагор

Ведьмак / The Witcher сериал

Лицензия

ПШазам

ОК

Оно 2

iTunes

30
pack

Вам бонус

ВАЖНО

!!Акция!!

Alien_RageХит недели

RePack

Resident Evil 21

ИГРА 18+

pack

RePack

jed

!!Акция!!

Alien_Rage

RePack

fifa19

RePack

Assassins Creed: Odyssey

RePack

NEED FOR SPEED™ PAYBACK

4 сезон

9 сезон

Бесстыжие 9 сезон

Все сериалы

все сериалы на PB.wtf

RePack

FAR CRY 5
  

Скин / Skin (Гай Наттив) [2018, драма, биография, WEB-DL 720p] DUB [iTunes] pb.wtf

Скин через торрент pb.wtf

Раздают: 2 [ 0 KB/s ]
Размер: 3.51 GB | Добавлен: 5 мес. 11 д. назад | Торрент скачан:137 раз
Скачать  

08-08-2019 02:34 Скин Скачать торрент  

Скин / Skin
Год выпуска: 2018
Страна: США
Жанр: драма, биография
Продолжительность: 01:58:18
Перевод: Дублированный | iTunes
Субтитры: Русские

Режиссер: Гай Наттив

rating

В ролях: Джейми Белл, Даниэль Макдональд, Дэниэл Хеншэлл, Билл Кэмп, Луиса Краузе, Зои Маргарет Коллетти, Кайли Роджерс, Колби Ганнетт, Майк Колтер, Вера Фармига

Описание: Скинхед пытается найти себя в обычной жизни и начинает иначе смотреть на свои поступки, параллельно сталкиваясь с людьми, которые его воспитали.

Качество: WEB-DL 720p
Формат: MKV

Видео: MPEG-4 AVC, 3961 Кбит/с, 960x720@1280x720
Аудио: 48 kHz, AC3 Dolby Digital, 3/2 (L,C,R,l,r) + LFE ch, ~384 kbps
скриншот  скриншот  скриншот  

Общее
Уникальный идентификатор : 185337172749490032950106184686439548076 (0x8B6EA41DDC39794EA82F0AF9D6E8C4AC)
Полное имя : D:\Skin.2O18.D.WEB-DL.720p.mkv
Формат : Matroska
Версия формата : Version 2
Размер файла : 3,51 Гбайт
Продолжительность : 1 ч. 53 м.
Общий поток : 4433 Кбит/сек
Название фильма : Skin.2018.ELEKTRI4KA.UNIONGANG
Дата кодирования : UTC 2019-08-07 18:20:14
Программа кодирования : mkvmerge v7.8.0 ('River Man') 32bit built on Apr 3 2015 12:11:22
Библиотека кодирования : libebml v1.3.1 + libmatroska v1.4.2

Видео
Идентификатор : 2
Формат : AVC
Формат/Информация : Advanced Video Codec
Профиль формата : Main@L3.1
Параметр CABAC формата : Нет
Параметр RefFrames формата : 2 кадра
Идентификатор кодека : V_MPEG4/ISO/AVC
Продолжительность : 1 ч. 53 м.
Битрейт : 3961 Кбит/сек
Ширина : 960 пикселей
Высота : 720 пикселей
Соотношение сторон : 16:9
Режим частоты кадров : Постоянный
Частота кадров : 25,000 кадров/сек
Цветовое пространство : YUV
Субдискретизация насыщенности : 4:2:0
Битовая глубина : 8 бит
Тип развёртки : Прогрессивная
Бит/(Пиксели*Кадры) : 0.229
Размер потока : 3,14 Гбайт (89%)
Язык : English
Default : Да
Forced : Нет
Цветовой диапазон : Limited
Основные цвета : BT.709
Характеристики трансфера : BT.709
Коэффициенты матрицы : BT.709

Аудио
Идентификатор : 1
Формат : AC-3
Формат/Информация : Audio Coding 3
Расширение режима : CM (complete main)
Параметр Endianness формата : Big
Идентификатор кодека : A_AC3
Продолжительность : 1 ч. 53 м.
Вид битрейта : Постоянный
Битрейт : 384 Кбит/сек
Каналы : 6 каналов
Расположение каналов : Front: L C R, Side: L R, LFE
Частота : 48,0 КГц
Частота кадров : 31,250 кадров/сек (1536 spf)
Метод сжатия : С потерями
Размер потока : 312 Мбайт (9%)
Язык : Russian
Default : Да
Forced : Нет

Текст
Идентификатор : 3
Формат : UTF-8
Идентификатор кодека : S_TEXT/UTF8
Идентификатор кодека/Информация : UTF-8 Plain Text
Заголовок : rus
Язык : Russian
Default : Да
Forced : Нет

Меню
00:00:00.000 : en:Глава 1
00:09:13.120 : en:Глава 2
00:17:52.760 : en:Глава 3
00:26:31.360 : en:Глава 4
00:34:55.439 : en:Глава 5
00:42:55.598 : en:Глава 6
00:51:05.317 : en:Глава 7
00:59:29.237 : en:Глава 8
01:08:07.155 : en:Глава 9
01:16:29.955 : en:Глава 10
01:24:55.635 : en:Глава 11
01:33:01.154 : en:Глава 12
01:41:27.593 : en:Глава 13

pb.wtf



Скачать Скин через торрент https://a.radikal.ru/a12/1908/db/72e4f82b36df.png Скачать фильм Скин через торрент бесплантно в хорошем качестве Описание: Скинхед пытается найти себя в обычной жизни и начинает иначе смотреть на свои поступки, параллельно сталкиваясь с людьми, которые ... 10 10 6
Торрент: Зарегистрирован [2019-08-08 02:34] · скачан: 137 раз
Статус: √ проверено
Размер: 3.51 GB
Как cкачать? Как скачать Скин через торрент | qTorrent

% Раздел Тема Автор DL S | L
Зарубежные сериалы [ 5.9 GB ] Библиотекари / The Librarians / Сезон: 2 / Серии 1-10 из 10 [2015 WEB-DLRip MVO] [LostFilm] GEKADOL Скачать
1 | 0
Фильмы 2018 [DVDrip, WEB-DLRip, HDrip] (DUB, MVO) [ 2.13 GB ] Скин / Skin [2018 биография BDRip] bober100 Скачать
1 | 0
Фильмы 2018 [DVDrip, WEB-DLRip, HDrip] (DUB, MVO) [ 1.41 GB ] Скин / Skin [2018 биография BDRip] bober100 Скачать
5 | 0
Фильмы (Blu-ray, BD-Remux, HDDVD) [ 22.56 GB ] Скин / Skin [2018 биография BD Remux 1080p] bober100 Скачать
1 | 0
Фильмы [HD 720p, 1080p] (Хороший звук DUB, MVO) [ 8.01 GB ] Скин / Skin [2018 биография BDRip 1080p] bober100 Скачать
6 | 0
Фильмы (WEB-DL 720p, 1080p) [ 4.4 GB ] Скин / Skin [2018 биография WEB-DL 1080p] - ExKinoRay Enigma2010 Скачать
87 | 13
Фильмы 2018 [DVDrip, WEB-DLRip, HDrip] (DUB, MVO) [ 2.1 GB ] Скин / Skin [2018 биография BDRip-AVC] - ExKinoRay Enigma2010 Скачать
21 | 1

28-11-2019 20:33  

Отключить всю рекламу на сайте

    Дорогой пользователь! Огромная просьба, поблагодарите релизера, оцените раздачу и оставьте свои комментарий, если Вы скачали Скин через торрент бесплатно! Внесите свою лепту в развитие PiratBit!
    Комментировать посты могут только пользователи прошедшие не сложную регистрацию
    Показать сообщения:    

    Скин через торрент
    Скачать бесплатно Скин
    Скин скачать торрент
    Скин смотреть онлайн
    Cкачать фильм Скин бесплатно
    Скин скачать торрент в хорошем качестве
    Скин смотреть онлайн бесплатно в хорошем качестве


    Вы не можете начинать темы
    Вы не можете отвечать на сообщения
    Вы не можете редактировать свои сообщения
    Вы не можете удалять свои сообщения
    Вы не можете голосовать в опросах
    Вы не можете прикреплять файлы к сообщениям
    Вы можете скачивать файлы