Ссылка на приватное зеркало нашего сайта всего за 1$. Внимание количество ограничено!!!

2 сезон

iTunes

1 сезон

1

2 сезон

2 сезон

iTunes

1 сезон

RePack

30

Новинка

ВАЖНО

ИГРА 18+

pack

RePack

MK11
pack

Забери бонус

RePack

jed

!!Акция!!

Alien_Rage

RePack

fifa19

RePack

Assassins Creed: Odyssey

RePack

NEED FOR SPEED™ PAYBACK

4 сезон

9 сезон

Бесстыжие 9 сезон

Все сериалы

все сериалы на PB.wtf

RePack

FAR CRY 5
  

Одинокий парень / Руководство для одиноких мужчин / The Lonely Guy (Артур Хиллер / Arthur Hiller) [1984, комедия, мелодрама, WEB-DL 720p] 2x[MVO] + [AVO] (А.Михалев) pb.wtf

Одинокий парень через торрент pb.wtf

Размер: 3.13 GB | Добавлен: 1 год 3 мес. назад | Торрент скачан:19 раз
Скачать  

08-08-2019 06:39 Одинокий парень Скачать торрент  

Одинокий Парень / Руководство для Одиноких Мужчин / The Lonely Guy


Страна: США
Жанр: комедия, мелодрама
Год выпуска: 1984
Продолжительность: 01:30:24
Перевод: Профессиональный (многоголосый, закадровый)
Перевод: Профессиональный (многоголосый, закадровый) ОРТ
Перевод: Авторский (одноголосый, закадровый) Алексей Михалёв
Субтитры: английские
Режиссер: Артур Хиллер / Arthur Hiller
В ролях:Стив Мартин, Чарльз Гродин, Джудит Ивей, Стив Лоуренс, Робин Дугласс, Мерв Гриффин
Описание:
Застав свою подружку в постели с другим, потрясенный до глубины души таким коварством Ларри Хаббарт, решает, что теперь его удел — одиночество. Время идет, и неожиданно, внимание застенчивого Ларри привлекает очаровательная Айрис. Он робко пытается ухаживать, но девушка не обращает на него никакого внимания. Глубоко переживая неудачу, Хаббарт начинает писать книгу, доверив бумаге все мысли, чувства и переживания одинокого, обманутого и неуверенного в себе парня. Неожиданно книга становится бестселлером, а Ларри — богатым и знаменитым. Теперь у него появляется шанс возобновить отношения с Айрис.


Тип релиза: WEB-DL 720p
Контейнер: MKV
Видео: 1280x682 (1.85:1); 4080 Kbps; 23.976 fps; 0.178 bpp
Аудио 1: Russian; AC3; 48.0 KHz; 2ch; 192 Kbps MVO
Аудио 2: Russian; AC3; 48.0 KHz; 2ch; 192 Kbps MVO ОРТ
Аудио 3: Russian; AC3; 48.0 KHz; 2ch; 192 Kbps AVO Михалёв
Аудио 4: English; AAC; 48.0 KHz; 2ch; 160 Kbps
Format : Matroska
Format version : Version 4 / Version 2
File size : 3.13 GiB
Duration : 1h 30mn
Overall bit rate : 4 960 Kbps
Encoded date : UTC 2016-04-21 15:19:14
Writing application : mkvmerge v8.3.0 ('Over the Horizon') 64bit
Writing library : libebml v1.3.1 + libmatroska v1.4.2
Attachements : poster.jpg
DURATION : 01:30:24.352000000
NUMBER_OF_FRAMES : 169511
NUMBER_OF_BYTES : 130184448
_STATISTICS_WRITING_APP : mkvmerge v8.3.0 ('Over the Horizon') 64bit
_STATISTICS_WRITING_DATE_UT : 2016-04-21 15:19:14
_STATISTICS_TAGS : BPS DURATION NUMBER_OF_FRAMES NUMBER_OF_BYTES

Video
ID : 1
Format : AVC
Format/Info : Advanced Video Codec
Format profile : High@L3.1
Format settings, CABAC : No
Format settings, ReFrames : 2 frames
Codec ID : V_MPEG4/ISO/AVC
Duration : 1h 30mn
Width : 1 280 pixels
Height : 682 pixels
Display aspect ratio : 1.85:1
Frame rate mode : Constant
Frame rate : 23.976 fps
Color space : YUV
Chroma subsampling : 4:2:0
Bit depth : 8 bits
Scan type : Progressive
Language : English
Default : Yes
Forced : No
Color range : Limited
Color primaries : BT.709
Transfer characteristics : BT.709
Matrix coefficients : BT.709

Audio #1
ID : 2
Format : AC-3
Format/Info : Audio Coding 3
Mode extension : CM (complete main)
Format settings, Endianness : Big
Codec ID : A_AC3
Duration : 1h 30mn
Bit rate mode : Constant
Bit rate : 192 Kbps
Channel(s) : 2 channels
Channel positions : Front: L R
Sampling rate : 48.0 KHz
Compression mode : Lossy
Stream size : 124 MiB (4%)
Title : MVO
Language : Russian
Default : Yes
Forced : No

Audio #2
ID : 3
Format : AC-3
Format/Info : Audio Coding 3
Mode extension : CM (complete main)
Format settings, Endianness : Big
Codec ID : A_AC3
Duration : 1h 30mn
Bit rate mode : Constant
Bit rate : 192 Kbps
Channel(s) : 2 channels
Channel positions : Front: L R
Sampling rate : 48.0 KHz
Compression mode : Lossy
Stream size : 124 MiB (4%)
Title : MVO ОРТ
Language : Russian
Default : No
Forced : No

Audio #3
ID : 4
Format : AC-3
Format/Info : Audio Coding 3
Mode extension : CM (complete main)
Format settings, Endianness : Big
Codec ID : A_AC3
Duration : 1h 30mn
Bit rate mode : Constant
Bit rate : 192 Kbps
Channel(s) : 2 channels
Channel positions : Front: L R
Sampling rate : 48.0 KHz
Compression mode : Lossy
Stream size : 124 MiB (4%)
Title : AVO Михалёв
Language : Russian
Default : No
Forced : No

Audio #4
ID : 5
Format : AAC
Format/Info : Advanced Audio Codec
Format profile : LC
Codec ID : A_AAC
Duration : 1h 30mn
Channel(s) : 2 channels
Channel positions : Front: L R
Sampling rate : 48.0 KHz
Compression mode : Lossy
Language : English
Default : No
Forced : No

Text
ID : 6
Format : UTF-8
Codec ID : S_TEXT/UTF8
Codec ID/Info : UTF-8 Plain Text
Language : English
Default : No
Forced : No
скриншот  скриншот  скриншот  
pb.wtf



Скачать Одинокий парень через торрент http://i78.fastpic.ru/big/2016/0421/cc/3ffdbabff9ed44167c18bff3de95d1cc.jpg Скачать фильм Одинокий парень через торрент бесплантно в хорошем качестве Описание:Застав свою подружку в постели с другим, потрясенный до глубины души таким коварством Ларри Хаббарт, решает, что теперь его удел — ... 10 10 3
Торрент: Зарегистрирован [2019-08-08 06:39] · скачан: 19 раз
Статус: √ проверено
Размер: 3.13 GB
Как cкачать? Как скачать Одинокий парень через торрент | qTorrent

28-11-2019 20:33  

Отключить всю рекламу на сайте

    Дорогой пользователь! Огромная просьба, поблагодарите релизера, оцените раздачу и оставьте свои комментарий, если Вы скачали Одинокий парень через торрент бесплатно! Внесите свою лепту в развитие PiratBit!
    Комментировать посты могут только пользователи прошедшие не сложную регистрацию
    Показать сообщения:    

    Одинокий парень через торрент
    Скачать бесплатно Одинокий парень
    Одинокий парень скачать торрент
    Одинокий парень смотреть онлайн
    Cкачать фильм Одинокий парень бесплатно
    Одинокий парень скачать торрент в хорошем качестве
    Одинокий парень смотреть онлайн бесплатно в хорошем качестве


    Вы не можете начинать темы
    Вы не можете отвечать на сообщения
    Вы не можете редактировать свои сообщения
    Вы не можете удалять свои сообщения
    Вы не можете голосовать в опросах
    Вы не можете прикреплять файлы к сообщениям
    Вы можете скачивать файлы