2 сезон

iTunes

MVO

1

2 сезон

iTunes

iTunes

1 сезон

RePack

30

Новинка

ВАЖНО

ИГРА 18+

pack

RePack

MK11
pack

Легкие деньги

RePack

jed

RePack

fifa19

RePack

RDR2

RePack

NEED FOR SPEED™ PAYBACK

4 сезон

9 сезон

Бесстыжие 9 сезон

Все сериалы

все сериалы на PB.wtf

RePack

FAR CRY 5

Anonymous, добрый вечер, мы не успеваем собрать деньги на оплату серверов за декабрь и январь, помогите нам пожалуйста в это трудное время. В качестве благодарности мы отключим Вам всю рекламу на сайте (укажите свой ник в строку Ваше имя)!

×
  
Magnet ссылка

Пастырь / Проповедник / Preacher / Сезон: 4 / Серии: 1-10 из 10 (Майкл Словис) [2019, Фэнтези, драма, детектив, приключения, WEB-DL 720p] [DVO] (Кубик в Кубе) pb.wtf

Пастырь через торрент pb.wtf

Раздают: 1 [ 0 KB/s ]
Размер: 13.62 GB | Добавлен: 1 год 2 мес. назад | Торрент скачан:41 раз
Скачать  

08-08-2019 10:36 Пастырь Скачать торрент  

Пастырь | Проповедник | Preacher«Охеренно всесильный»
Страна: США
Год выпуска: 2019
Жанр: Фэнтези, драма, детектив, приключения
Продолжительность: ~ 00:43:00 серия
Перевод: Профессиональный (двухголосый) *Кубик в Кубе*
Режиссер: Майкл Словис, Эван Голдберг, Сет Роген

В ролях: Доминик Купер, Джозеф Гилган, Рут Негга, Люси Гриффитс, У. Эрл Браун, Том Брук, Анатол Юсеф, Йен Коллетти, Дерек Уилсон, Джеки Эрл Хейли
Описание:
Священник Джесси Кастер по воле случая стал носителем внутри своего естества странного существа по имени Генезис. Это дитя совокупления ангела и демона представляет собой одновременно чистый идеал и квинтэссенцию света, но также сгусток абсолютного зла. Генезис — единственное существо во Вселенной, которое может встать вровень с Богом, если того пожелает, а его носитель автоматически становится самым могущественным существом в материальном мире. И это проповедник Кастер.

Качество видео: WEB-DL 720p
Формат: MKV
Видео: 1280x720 at 23.976 fps, MPEG-4 AVC, ~3000 kbps avg
Аудио Rus: AC-3, 48 kHz, 6 ch, 640 kbps; КвК
Аудио Eng: AC-3, 48 kHz, 6 ch, 640 kbps |Original|
Субтитры: Русские - Forced, Русские - Full (Amazon), Английские (SDH)


Общее
Уникальный идентификатор : 6841646138877564049098862973457587225 (0x525A732A93BCCD2059861E85E04DC19)
Полное имя : D:\Раздача\Preacher\Preacher.S04E01.Masada.720p.720p.AMZN.WEB-DL.H.264.mkv
Формат : Matroska
Версия формата : Version 4
Размер файла : 1,21 Гбайт
Продолжительность : 41 м. 29 с.
Общий поток : 4169 Кбит/сек
Дата кодирования : UTC 2019-08-16 21:21:35
Программа кодирования : mkvmerge v36.0.0 ('Is That Jazz?') 64-bit
Библиотека кодирования : libebml v1.3.9 + libmatroska v1.5.2

Видео
Идентификатор : 1
Формат : AVC
Формат/Информация : Advanced Video Codec
Профиль формата : High@L3.1
Настройки формата : CABAC / 4 Ref Frames
Параметр CABAC формата : Да
Параметр RefFrames формата : 4 кадра
Идентификатор кодека : V_MPEG4/ISO/AVC
Продолжительность : 41 м. 29 с.
Вид битрейта : Постоянный
Битрейт : 2887 Кбит/сек
Номинальный битрейт : 6000 Кбит/сек
Ширина : 1280 пикселей
Высота : 720 пикселей
Соотношение сторон : 16:9
Режим частоты кадров : Постоянный
Частота кадров : 23,976 (24000/1001) кадра/сек
Цветовое пространство : YUV
Субдискретизация насыщенности : 4:2:0
Битовая глубина : 8 бит
Тип развёртки : Прогрессивная
Бит/(Пиксели*Кадры) : 0.131
Размер потока : 857 Мбайт (69%)
Default : Да
Forced : Нет
Цветовой диапазон : Limited
Основные цвета : BT.709
Характеристики трансфера : BT.709
Коэффициенты матрицы : BT.709

Аудио #1
Идентификатор : 2
Формат : AC-3
Формат/Информация : Audio Coding 3
Коммерческое название : Dolby Digital
Идентификатор кодека : A_AC3
Продолжительность : 41 м. 29 с.
Вид битрейта : Постоянный
Битрейт : 640 Кбит/сек
Каналы : 6 каналов
ChannelLayout : L R C LFE Ls Rs
Частота : 48,0 КГц
Частота кадров : 31,250 кадров/сек (1536 SPF)
Битовая глубина : 16 бит
Метод сжатия : С потерями
Размер потока : 190 Мбайт (15%)
Заголовок : Russian - Кубик в Кубе
Язык : Russian
ServiceKind/String : Complete Main
Default : Да
Forced : Нет

Аудио #2
Идентификатор : 3
Формат : AC-3
Формат/Информация : Audio Coding 3
Коммерческое название : Dolby Digital
Идентификатор кодека : A_AC3
Продолжительность : 41 м. 29 с.
Вид битрейта : Постоянный
Битрейт : 640 Кбит/сек
Каналы : 6 каналов
ChannelLayout : L R C LFE Ls Rs
Частота : 48,0 КГц
Частота кадров : 31,250 кадров/сек (1536 SPF)
Битовая глубина : 16 бит
Метод сжатия : С потерями
Размер потока : 190 Мбайт (15%)
Заголовок : Original
Язык : English
ServiceKind/String : Complete Main
Default : Нет
Forced : Нет

Текст #1
Идентификатор : 4
Формат : UTF-8
Идентификатор кодека : S_TEXT/UTF8
Идентификатор кодека/Информация : UTF-8 Plain Text
Продолжительность : 1 с. 127 мс.
Битрейт : 560 бит/сек
ElementCount : 1
Размер потока : 79,0 байт (0%)
Заголовок : Russian Forced
Язык : Russian
Default : Да
Forced : Нет

Текст #2
Идентификатор : 5
Формат : UTF-8
Идентификатор кодека : S_TEXT/UTF8
Идентификатор кодека/Информация : UTF-8 Plain Text
Продолжительность : 40 м. 54 с.
Битрейт : 57 бит/сек
ElementCount : 386
Размер потока : 17,2 Кбайт (0%)
Заголовок : Russian - Full
Язык : Russian
Default : Нет
Forced : Нет

Текст #3
Идентификатор : 6
Формат : UTF-8
Идентификатор кодека : S_TEXT/UTF8
Идентификатор кодека/Информация : UTF-8 Plain Text
Продолжительность : 40 м. 48 с.
Битрейт : 41 бит/сек
ElementCount : 474
Размер потока : 12,3 Кбайт (0%)
Заголовок : SDH
Язык : English
Default : Нет
Forced : Нет

скриншот  скриншот  скриншот  

Раздача ведётся путём добавления новых серий; при каждом добавлении создаётся новый торрент.
Чтобы начать докачку новой серии, пользователям необходимо сделать следующее:
1. остановить скачивание,
2. удалить старый торрент у себя из клиента (старые серии удалять не надо),
3. скачать новый торрент и запустить его у себя в клиенте вместо старого, при этом указать клиенту путь в старую папку, куда и должно происходить скачивание новых серий.

Ваш клиент при этом должен произвести хеширование (проверку) старой папки (если не производит сам - помогите ему сделать это), и будет докачивать только те серии которых у вас ещё нет. Старые серии при этом не удаляются, а продолжают раздаваться!

Eсли вы уже удалили старые серии, то предотвратить повторную закачку старых серий можно, отжав галочку в соответствующих местах при запуске нового торрента. По возможности, желательно не удалять старые серии как можно дольше, чтобы релизёр не столько продолжал раздавать старые серии, а смог сконцентрироваться на новых.

Совет для тех, кто не хочет ждать перехеширования:
Создайте ещё одну папку рядом с папкой сериала (рядом, а не в ней!!!). Каждую новую серию после удачной загрузки копируйте в новую папку так чтобы ваша основная папка всегда была пуста. Когда ваш новый торрент предложит вам закачать все файлы, выберете только последнюю. Для сидирования же укажите адрес новой папки.

Как закачать отдельный файл из торрента или докачать ранее пропущенные файлы торрента!

1. Открыть торрент
2. Снять галки с тех файлов торрента, которые мы не хотим закачивать. Оставляем только на нужных нам файлах (файле).
3. Нажать О.К.

В клиенте utorrent

Инструкция

1) Открыть торрент


2) Снять галки с тех файлов торрента, которые мы не хотим закачивать:

* либо вручную, снимая с каждого файла галку( скрин №1)
* либо, нажав кнопку "Снять метки (Select None)", сняв сразу со всех файлов(скрин №2)
№1

№2

Оставляем только на нужных нам файлах (файле).

3)Нажать О.К
pb.wtf



Скачать Пастырь через торрент https://i1.imageban.ru/out/2019/08/06/cece952e814229a51e4e03a9637a5512.png Скачать фильм Пастырь через торрент бесплантно в хорошем качестве Описание:Священник Джесси Кастер по воле случая стал носителем внутри своего естества странного существа по имени Генезис. Это дитя ... 10 10 2
Торрент: Зарегистрирован [2019-11-09 18:00] · скачан: 41 раз
Статус: √ проверено
Размер: 13.62 GB
Как cкачать? Как скачать Пастырь через торрент | UTorrent

% Раздел Тема Автор DL S | L
Зарубежные сериалы [ 8.47 GB ] Пастырь / Проповедник / Preacher / Сезон: 4 / Серии: 1-10 из 10 [2019 WEB-DLRip] DVO [Кубик в Кубе] bober100 Скачать
1 | 0
Зарубежные сериалы [ 25.89 GB ] Проповедник / Пастырь / Preacher / Сезон: 4 / Серии: 1-10 из 10 [2019 WEB-DL 1080p] DVO [Кубик в Кубе] bober100 Скачать
2 | 0
Зарубежные сериалы [ 25.9 GB ] Пастырь / Проповедник / Preacher / Сезон: 4 / Серии: 1-10 из 10 [2019 WEB-DL 1080p] MVO [Lostfilm] bober100 Скачать
1 | 0
Зарубежные сериалы [ 6.14 GB ] Проповедник / Пастырь / Preacher / Сезон: 4 / Серии: 1-10 из 10 [2019 WEB-DLRip] MVO [AlexFilm] bober100 Скачать
1 | 0
Зарубежные сериалы [ 25.11 GB ] Проповедник / Пастырь / Preacher / Сезон: 4 / Серии: 1-10 из 10 [2019 WEB-DL 1080p] MVO [AlexFilm] bober100 Скачать
1 | 0
Зарубежные сериалы [ 12.84 GB ] Проповедник / Пастырь / Preacher / Сезон: 4 / Серии: 1-10 из 10 [2019 WEB-DL 720p] [MVO] killermax2013 Скачать
1 | 0
Зарубежные сериалы [ 12.85 GB ] Пастырь / Проповедник / Preacher / Сезон: 4 / Серии: 1-10 из 10 [2019 WEB-DL 720p] [MVO] killermax2013 Скачать
1 | 0

28-11-2019 20:33  

Отключить всю рекламу на сайте

    Дорогой пользователь! Огромная просьба, поблагодарите релизера, оцените раздачу и оставьте свои комментарий, если Вы скачали Пастырь через торрент бесплатно! Внесите свою лепту в развитие PiratBit!
    Комментировать посты могут только пользователи прошедшие не сложную регистрацию
    Показать сообщения:    

    Пастырь через торрент
    Скачать бесплатно Пастырь
    Пастырь скачать торрент
    Пастырь смотреть онлайн
    Cкачать фильм Пастырь бесплатно
    Пастырь скачать торрент в хорошем качестве
    Пастырь смотреть онлайн бесплатно в хорошем качестве


    Вы не можете начинать темы
    Вы не можете отвечать на сообщения
    Вы не можете редактировать свои сообщения
    Вы не можете удалять свои сообщения
    Вы не можете голосовать в опросах
    Вы не можете прикреплять файлы к сообщениям
    Вы можете скачивать файлы