Ссылка на приватное зеркало всего за 1$. Внимание количество ограничено!!!

iTunes

1+1

iTunes

мы

WEB-DL

1

iTunes

Чернобыль

iTunes

Ральф против интернета

Лицензия

ПШазам

Лицензия

Оно 2

Лицензия

30
pack

Вам бонус

ВАЖНО

!!Акция!!

Alien_RageХит недели

RePack

Resident Evil 21

ИГРА 18+

pack

RePack

jed

!!Акция!!

Alien_Rage

RePack

fifa19

RePack

Assassins Creed: Odyssey

RePack

NEED FOR SPEED™ PAYBACK

3 сезон

9 сезон

Бесстыжие 9 сезон

Все сериалы

все сериалы на PB.wtf

RePack

FAR CRY 5
Ребята, катастрофически не хватает 1900р. для оплаты серверов за Октябрь (всвязи с блокировками трафик упал в 3 раза), 1-2р., выручайте.
  

Курск / Kursk (Томас Винтерберг) [2018, триллер, драма, история, BDRip-AVC] [Dub] pb.wtf

Курск через торрент pb.wtf

Раздают: 16 [ 0 KB/s ]
Размер: 746 MB | Добавлен: 4 мес. 6 д. назад | Торрент скачан:60 раз
Скачать  

08-08-2019 17:02 Курск Скачать торрент  

Курск
Kursk

«История, потрясшая мир. Правда, объединившая мир»

Страна: Бельгия, Люксембург
Жанр: триллер, драма, история
Год выпуска: 2018
Продолжительность: 01:57:37

Перевод: Профессиональный (полное дублирование) [Мосфильм-Мастер | iTunes]
Субтитры: русские (форсированные, полные)
Оригинальная аудиодорожка: нет

Режиссер: Томас Винтерберг / Thomas Vinterberg

В ролях: Маттиас Шонартс, Леа Сейду, Петер Симонишек, Аугуст Диль, Макс фон Сюдов, Колин Фёрт, Бьярне Хенриксен, Маунус Миллан, Артемий Спиридонов, Йоэль Басман

Описание: Фильм о событиях 2000 года, связанных с подлодкой «Курск». Вся правда о мужестве и стойкости российских подводников, о разногласиях и взаимопомощи, конфликтах и единении, о преданности и любви.



Релиз:

Автор рипа: stalkerok

Сэмпл

Качество видео: BDRip-AVC | Исходник: Kursk.2018.MULTI.COMPLETE.BLURAY-UTT
Формат видео: MKV
Видео кодек: AVC
Аудио кодек: AAC
Видео: AVC, 821 Кбит/сек, 788x330 (2.40:1), 24 кадр/сек
Аудио: AAC, 64 Кбит/сек, 48 КГц, 2.0 - русский
Навигация по главам: есть
---[Information] [08.08.2019 19:22:55] x264 [info]: frame I:937 Avg QP:13.46 size: 28911
---[Information] [08.08.2019 19:22:55] x264 [info]: frame P:37824 Avg QP:17.84 size: 9294
---[Information] [08.08.2019 19:22:55] x264 [info]: frame B:130623 Avg QP:18.68 size: 2638

General
Unique ID : 315354099290457469449590259881383155921 (0xED3EFD83B3ECEB6CF0CE8A238585D8D1)
Complete name : C:\temp\Kursk\Kursk.2018.BDRip.x264.Rus.stalkerok.New-Team..mkv
Format : Matroska
Format version : Version 4
File size : 746 MiB
Duration : 1 h 57 min
Overall bit rate : 886 kb/s
Movie name : Kursk (2018) | Rip by stalkerok
Encoded date : UTC 2019-08-08 16:53:04
Writing application : mkvmerge v33.1.0 ('Primrose') 64-bit
Writing library : libebml v1.3.7 + libmatroska v1.5.0
Attachments : Kursk.jpg

Video
ID : 1
Format : AVC
Format/Info : Advanced Video Codec
Format profile : High@L4.1
Format settings : CABAC / 12 Ref Frames
Format settings, CABAC : Yes
Format settings, RefFrames : 12 frames
Codec ID : V_MPEG4/ISO/AVC
Duration : 1 h 57 min
Bit rate : 821 kb/s
Width : 788 pixels
Height : 330 pixels
Display aspect ratio : 2.40:1
Frame rate mode : Constant
Frame rate : 24.000 FPS
Color space : YUV
Chroma subsampling : 4:2:0
Bit depth : 8 bits
Scan type : Progressive
Bits/(Pixel*Frame) : 0.132
Stream size : 690 MiB (92%)
Title : Kursk (2018) | Rip by stalkerok
Writing library : x264 core 158 r2984+49 6932f4a t_mod_New [0-bit@all X86_64]
Encoding settings : cabac=1 / ref=12 / deblock=1:-2:-1 / analyse=0x3:0x133 / me=umh / subme=10 / psy=1 / fade_compensate=0.00 / psy_rd=1.00:0.00 / mixed_ref=1 / me_range=32 / chroma_me=1 / trellis=2 / 8x8dct=1 / cqm=0 / deadzone=21,11 / fast_pskip=0 / chroma_qp_offset=-2 / threads=10 / lookahead_threads=2 / sliced_threads=0 / nr=0 / decimate=0 / interlaced=0 / bluray_compat=0 / constrained_intra=0 / fgo=0 / bframes=15 / b_pyramid=2 / b_adapt=2 / b_bias=0 / direct=3 / weightb=1 / open_gop=0 / weightp=2 / keyint=240 / keyint_min=23 / scenecut=40 / intra_refresh=0 / rc_lookahead=60 / rc=2pass / mbtree=0 / bitrate=821 / ratetol=1.0 / qcomp=0.65 / qpmin=0:0:0 / qpmax=69:69:69 / qpstep=4 / cplxblur=20.0 / qblur=0.5 / vbv_maxrate=50000 / vbv_bufsize=62500 / nal_hrd=none / filler=0 / ip_ratio=1.40 / pb_ratio=1.30 / aq=3:0.95 / aq-sensitivity=10.00 / aq-factor=1.00:1.00:1.00 / aq2=0 / aq3=0 / zones=158583,169383,q=34
Default : Yes
Forced : No

Audio
ID : 2
Format : AAC LC SBR
Format/Info : Advanced Audio Codec Low Complexity with Spectral Band Replication
Commercial name : HE-AAC
Format settings : Explicit
Codec ID : A_AAC-2
Duration : 1 h 57 min
Bit rate : 64.0 kb/s
Channel(s) : 2 channels
Channel layout : L R
Sampling rate : 48.0 kHz
Frame rate : 23.438 FPS (2048 SPF)
Compression mode : Lossy
Delay relative to video : 31 ms
Stream size : 53.8 MiB (7%)
Language : Russian
Default : Yes
Forced : No

Text #1
ID : 3
Format : UTF-8
Codec ID : S_TEXT/UTF8
Codec ID/Info : UTF-8 Plain Text
Duration : 10 s 457 ms
Bit rate : 88 b/s
Count of elements : 1
Stream size : 116 Bytes (0%)
Title : Forced
Language : Russian
Default : Yes
Forced : No

Text #2
ID : 4
Format : UTF-8
Codec ID : S_TEXT/UTF8
Codec ID/Info : UTF-8 Plain Text
Duration : 1 h 48 min
Bit rate : 70 b/s
Count of elements : 1076
Stream size : 56.2 KiB (0%)
Language : Russian
Default : No
Forced : No

Menu
00:00:00.000 : en:Chapter 01
00:10:35.000 : en:Chapter 02
00:20:02.000 : en:Chapter 03
00:31:43.000 : en:Chapter 04
00:38:38.000 : en:Chapter 05
00:48:32.000 : en:Chapter 06
00:59:55.000 : en:Chapter 07
01:08:57.000 : en:Chapter 08
01:18:16.000 : en:Chapter 09
01:28:53.000 : en:Chapter 10
01:38:18.000 : en:Chapter 11
01:47:32.000 : en:Chapter 12
pb.wtf



Скачать Курск через торрент http://i6.imageban.ru/out/2017/09/18/2ff75c0c358795c5946784cc1680714d.png Скачать фильм Курск через торрент бесплантно в хорошем качестве Описание: Фильм о событиях 2000 года, связанных с подлодкой «Курск». Вся правда о мужестве и стойкости российских подводников, о ... 7.8 10 4
Info! Золотая раздача, скачанное не засчитывается.
Торрент: Зарегистрирован [2019-08-08 17:02] · скачан: 60 раз
Статус: √ проверено
Размер: 746 MB
Как cкачать? Как скачать Курск через торрент | qTorrent

% Раздел Тема Автор DL S | L
Фильмы 2018 [DVDrip, WEB-DLRip, HDrip] (DUB, MVO) [ 1.51 GB ] Курск / Kursk [2018 история BDRip-AVC] sokol_ok Скачать
10 | 7
Фильмы 2018 [DVDrip, WEB-DLRip, HDrip] (DUB, MVO) [ 2.18 GB ] Курск / Kursk [2018 история BDRip-AVC] sokol_ok Скачать
40 | 1
Фильмы 2018 [DVDrip, WEB-DLRip, HDrip] (DUB, MVO) [ 746 MB ] Курск / Kursk [2018 история BDRip] bober100 Скачать
1 | 0
Фильмы 2018 [DVDrip, WEB-DLRip, HDrip] (DUB, MVO) [ 1.46 GB ] Курск / Kursk [2018 история BDRip-AVC] +MVO [HDRezka Studio] bober100 Скачать
1 | 0
Фильмы 2018 [DVDrip, WEB-DLRip, HDrip] (DUB, MVO) [ 2.18 GB ] Курск / Kursk [2018 история BDRip] bober100 Скачать
4 | 0
Фильмы 2018 [DVDrip, WEB-DLRip, HDrip] (DUB, MVO) [ 2.15 GB ] Курск / Kursk [2018 BDRip-AVC] Dub - ExKinoRay Enigma2010 Скачать
46 | 4
Фильмы 2018 [DVDrip, WEB-DLRip, HDrip] (DUB, MVO) [ 1.46 GB ] Курск / Kursk [2018 история BDRip] bober100 Скачать
2 | 0

28-11-2019 20:33  

Отключить всю рекламу на сайте

    Дорогой пользователь! Огромная просьба, поблагодарите релизера, оцените раздачу и оставьте свои комментарий, если Вы скачали Курск через торрент бесплатно! Внесите свою лепту в развитие PiratBit!
    Комментировать посты могут только пользователи прошедшие не сложную регистрацию
    Показать сообщения:    

    Курск через торрент
    Скачать бесплатно Курск
    Курск скачать торрент
    Курск смотреть онлайн
    Cкачать фильм Курск бесплатно
    Курск скачать торрент в хорошем качестве
    Курск смотреть онлайн бесплатно в хорошем качестве


    Вы не можете начинать темы
    Вы не можете отвечать на сообщения
    Вы не можете редактировать свои сообщения
    Вы не можете удалять свои сообщения
    Вы не можете голосовать в опросах
    Вы не можете прикреплять файлы к сообщениям
    Вы можете скачивать файлы