MEGA SALE -50% FORZA HORIZON 4 ULTIMATE+ВСЕ DLC+ОНЛАЙН всего за 599р. 299 руб. (супер цена). Внимание количество ограничено!!!

iTunes

1+1

iTunes

мы

iTunes

1

iTunes

Чернобыль

iTunes

Ральф против интернета

Лицензия

ПШазам

Лицензия

Игра престолов

Лицензия

30
pack

ВАЖНО

!!Акция!!

Alien_RageХит недели

RePack

Resident Evil 21

ИГРА 18+

pack

RePack

Metro:Exodus

!!Акция!!

Alien_Rage

RePack

fifa19

RePack

Assassins Creed: Odyssey

RePack

NEED FOR SPEED™ PAYBACK

3 сезон

9 сезон

Бесстыжие 9 сезон

Все сериалы

все сериалы на PB.wtf

RePack

FAR CRY 5
Ребята, катастрофически не хватает 7730р. для оплаты серверов за АВГУСТ (всвязи с блокировками трафик упал в 3 раза), 1-2р., выручайте.
  

Беверли Хиллз 90210 / BH90210 / Сезон: 1 / Серии: 1-6 из 6 (Элизабет Аллен, Кабир Ахтар) [2019, Драма, мелодрама, комедия, WEBRip] [DVO] (IdeaFilm) pb.wtf

Беверли Хиллз 90210 через торрент pb.wtf

Размер: 3.36 GB | Добавлен: 8 д. назад | Торрент скачан:4 раза
Скачать  

08-08-2019 19:02 Беверли Хиллз 90210 Скачать торрент  

Беверли Хиллз 90210 / BH90210
Год выпуска: 2019
Страна: США
Жанр: Драма, мелодрама, комедия
Продолжительность: ~ 00:44:00
Перевод: Любительский (двухголосый) | IdeaFilm
Субтитры: отсутствуют

Режиссер: Элизабет Аллен, Кабир Ахтар


В ролях
: Гэбриэлль Картерис, Шеннен Доэрти, Дженни Гарт, Брайан Остин Грин, Джейсон Пристли, Тори Спеллинг, Иэн Зиринг, Тай Вуд, Кристин Элиз, Керис Камерон

Описание: Актеры оригинального сериала Беверли-Хиллз 90210 встречаются через много лет, чтобы заново запустить сериал, но все идет совсем не по плану. Им приходится пересмотреть свои взгляды на прошлое и на настоящее

rating


Качество: WEBRip
Формат: AVI
Видео: 720x400, ~ 1450 Кбит/сек, 23,976 fps
Аудио: 48.0 kHz, AC3, 6 ch, 384 Кбит/с
скриншот  скриншот  скриншот  

General
Complete name : E:\BH90210.S01.WEBRip.400p.IdeaFilm\BH90210.S01E01.WEBRip.400p.IdeaFilm.avi
Format : AVI
Format/Info : Audio Video Interleave
File size : 590 MiB
Duration : 43 min 36 s
Overall bit rate : 1 893 kb/s
Writing application : VirtualDubMod 1.5.10.3 | www.virtualdub-fr.org || (build 2550/release)
Writing library : VirtualDubMod build 2550/release

Video
ID : 0
Format : MPEG-4 Visual
Format profile : Advanced Simple@L5
Format settings : BVOP2
Format settings, BVOP : 2
Format settings, QPel : No
Format settings, GMC : No warppoints
Format settings, Matrix : Default (MPEG)
Codec ID : XVID
Codec ID/Hint : XviD
Duration : 43 min 36 s
Source duration : 20 min 49 s
Bit rate : 1 414 kb/s
Width : 720 pixels
Height : 400 pixels
Display aspect ratio : 16:9
Frame rate : 23.976 (24000/1001) FPS
Color space : YUV
Chroma subsampling : 4:2:0
Bit depth : 8 bits
Scan type : Progressive
Compression mode : Lossy
Bits/(Pixel*Frame) : 0.205
Stream size : 211 MiB (36%)
Writing library : XviD 1.2.1 (UTC 2008-12-04)

Audio
ID : 1
Format : AC-3
Format/Info : Audio Coding 3
Format settings, Endianness : Big
Codec ID : 2000
Duration : 43 min 36 s
Source duration : 20 min 49 s
Bit rate mode : Constant
Bit rate : 384 kb/s
Channel(s) : 6 channels
Channel positions : Front: L C R, Side: L R, LFE
Sampling rate : 48.0 kHz
Frame rate : 31.250 FPS (1536 SPF)
Bit depth : 16 bits
Compression mode : Lossy
Stream size : 57.2 MiB (10%)
Alignment : Split accross interleaves
Interleave, duration : 42 ms (1.00 video frame)
Interleave, preload duratio : 500 ms
Service kind : Complete Main

Когда раздача ведётся путём добавления новых серий, при каждом добавлении создётся новый торрент. Чтобы начать докачку новой серии, пользователям необходимо сделать следующее:
(1) остановить скачивание,
(2) удалить старый торрент у себя из клиента (старые серии удалять не надо),
(3) скачать новый торрент и запустить его у себя в клиенте вместо старого, при этом указать клиенту путь в старую папку, куда и должно происходить скачивание новых серий.
Ваш клиент при этом должен произвести хеширование (проверку) старой папки (если не производит сам - помогите ему сделать это), и будет докачивать только те серии, которых у вас ещё нет. Старые серии при этом не удаляются, а продолжают раздаваться!
Eсли вы уже удалили старые серии, то предотвратить повторную закачку старых серий можно, отжав галочку в соответсвующих местах при запуске нового торрента. По возможности, желательно не удалять старые серии как можно дольше, чтобы релизер не столько продолжал раздавать старые серии, а смог сконцентрироваться на новых.
pb.wtf



Скачать Беверли Хиллз 90210 через торрент https://i90.fastpic.ru/big/2019/0808/e5/a49bd984395295c0cadd56d2ec99e0e5.jpg Скачать фильм Беверли Хиллз 90210 через торрент бесплантно в хорошем качестве Описание: Актеры оригинального сериала Беверли-Хиллз 90210 встречаются через много лет, чтобы заново запустить сериал, но все идет совсем ... 10 10 3
Торрент: Зарегистрирован [2019-09-13 18:07] · скачан: 4 раз
Статус: T временная
Размер: 3.36 GB
Как cкачать? Как скачать Беверли Хиллз 90210 через торрент | qTorrent

% Раздел Тема Автор DL S | L
Зарубежные сериалы [ 18.76 GB ] Беверли-Хиллз 90210 / BH90210 / Сезон: 1 / Серии: 1-6 из 6 [2019 WEB-DL 1080p] MVO [TVShows] bober100 Скачать
2 | 1
Зарубежные сериалы [ 3.61 GB ] Беверли-Хиллз 90210 / BH90210 / Сезон: 1 / Серии: 1-6 из 6 [2019 . WEB-DLRip] MVO [NewStudio] bober100 Скачать
2 | 1
Зарубежные сериалы [ 19.46 GB ] Беверли-Хиллз 90210 / BH90210 / Сезон: 1 / Серии: 1-6 из 6 [2019 WEBRip 1080p] 2xMVO [NewStudio LostFilm] bober100 Скачать
2 | 0
Зарубежные сериалы [ 3.61 GB ] Беверли-Хиллз 90210 / BH90210 / Сезон: 1 / Серии: 1-6 из 6 [2019 WEB-DLRip] MVO [LostFilm] bober100 Скачать
2 | 0
Зарубежные сериалы [ 10.16 GB ] Беверли-Хиллз 90210 / BH90210 / Сезон: 1 / Серии: 1-6 из 6 [2019 WEB-DL 720p] MVO [LostFilm] bober100 Скачать
2 | 0
T Зарубежные сериалы [ 2.64 GB ] Беверли Хиллз 90210 / BH90210 / Сезон: 1 / Серии: 1-5 из 6 [2019 WEBRip] [DVO] killermax2013 Скачать
2 | 0


>> Регистрируемся здесь <<






Отзывы и комментарии о схеме читаем и пишем здесь: ---> Отзывы и комментарии о схеме

Новые благодарочки в телеграм довольных пользователей:
скриншот   скриншот   скриншот   скриншот   скриншот
    Дорогой пользователь! Огромная просьба, поблагодарите релизера, оцените раздачу и оставьте свои комментарий, если Вы скачали Беверли Хиллз 90210 через торрент бесплатно! Внесите свою лепту в развитие PiratBit!
    Комментировать посты могут только пользователи прошедшие не сложную регистрацию
    Показать сообщения:    

    Беверли Хиллз 90210 через торрент
    Скачать бесплатно Беверли Хиллз 90210
    Беверли Хиллз 90210 скачать торрент
    Беверли Хиллз 90210 смотреть онлайн
    Cкачать фильм Беверли Хиллз 90210 бесплатно
    Беверли Хиллз 90210 скачать торрент в хорошем качестве
    Беверли Хиллз 90210 смотреть онлайн бесплатно в хорошем качестве


    Вы не можете начинать темы
    Вы не можете отвечать на сообщения
    Вы не можете редактировать свои сообщения
    Вы не можете удалять свои сообщения
    Вы не можете голосовать в опросах
    Вы не можете прикреплять файлы к сообщениям
    Вы можете скачивать файлы