новый адрес пиратбит piratbit
Мега распродажа FORZA HORIZON 4 ULTIMATE+ВСЕ DLC+ОНЛАЙН всего за 499р. 349 руб. (супер цена). Внимание количество ограничено!!!

iTunes

1+1

iTunes

мы

iTunes

1

iTunes

Чернобыль

iTunes

Ральф против интернета

Лицензия

ПШазам

Лицензия

Игра престолов

Лицензия

30
pack

ВАЖНО

!!Акция!!

Alien_RageХит недели

RePack

Resident Evil 21

ИГРА 18+

pack

RePack

Metro:Exodus

!!Акция!!

Alien_Rage

RePack

fifa19

RePack

Assassins Creed: Odyssey

RePack

NEED FOR SPEED™ PAYBACK

3 сезон

9 сезон

Бесстыжие 9 сезон

Все сериалы

все сериалы на PB.wtf

RePack

FAR CRY 5
Ребята, катастрофически не хватает 1900р. для оплаты серверов за Октябрь (всвязи с блокировками трафик упал в 3 раза), 1-2р., выручайте.
  

Дамбо / Dumbo (Тим Бёртон) [2019, фэнтези, семейный, BDRip 720p] DUB [Лицензия] pb.wtf

Дамбо через торрент pb.wtf

Раздают: 3 [ 3 KB/s ]
Размер: 5.3 GB | Добавлен: 3 мес. 4 д. назад | Торрент скачан:48 раз
Скачать  

08-08-2019 19:30 Дамбо Скачать торрент  

Дамбо / Dumbo««In 2019, a beloved tale will take you to new heights»»
Год выпуска: 2019
Страна: США
Жанр: фэнтези, семейный
Продолжительность: 01:51:56
Перевод: Дублированный | Лицензия
Субтитры: Русские (Forced, full), английские

Режиссер: Тим Бёртон

rating

В ролях:

Колин Фаррелл (Holt Farrier), Майкл Китон (V. A. Vandevere), Дэнни ДеВито (Max Medici), Ева Грин (Colette Marchant), Алан Аркин (J. Griffin Remington), Нико Паркер (Milly Farrier), Finley Hobbins (Joe Farrier), Рошан Сет (Pramesh Singh), Ларс Айдингер (Hans Brugelbecker), Деобиа Опарей (Rongo), Джозеф Гатт (Neils Skellig), Мигель Муньос Сегура (Ivan the Wonderful)
Описание: Цирковой импресарио Марк Медичи назначает бывшую звезду цирка Холта Фэрриера и его детей Милли и Джо опекунами новорожденного слонёнка, чьи невероятно большие уши сразу становятся предметом для постоянных шуток и насмешек коллег Холта по цеху. Внезапно узнав, что Дамбо умеет летать, владелец цирка решает нажиться на необычных способностях слонёнка. К делу подключается энергичный предприниматель В. А. Вэндевер, который решает сделать из малыша Дамбо главную звезду своего нового грандиозного развлекательного предприятия «Сказочная страна».

Качество: BDRip 720p
Формат: MKV

Видео: MPEG-4 AVC, 1280x692, 5500 Kbit/s, 23.976 fps
Аудио#1: 48 kHz, AC3, 5.1, 640 Kbps | Лицензия | RUS |
Аудио#2: 48 kHz, AC3, 5.1, 640 Kbps | Оригинал | ENG |
скриншот  скриншот  скриншот  скриншот  скриншот  

General
Unique ID : 184348178469833534847452070512227318773 (0x8AB02AEF18CFC57A6AD64DA7F558FBF5)
Complete name : D:Video111Dumbo.2019.Lic.BDRip.720p.seleZen.mkv
Format : Matroska
Format version : Version 4
File size : 5.30 GiB
Duration : 1 h 51 min
Overall bit rate : 6 779 kb/s
Movie name : Dumbo 2019 from селезень
Encoded date : UTC 2019-08-08 19:18:26
Writing application : mkvmerge v22.0.0 ('At The End Of The World') 64-bit
Writing library : libebml v1.3.5 + libmatroska v1.4.8

Video
ID : 1
Format : AVC
Format/Info : Advanced Video Codec
Format profile : High@L4.1
Format settings : CABAC / 9 Ref Frames
Format settings, CABAC : Yes
Format settings, Reference : 9 frames
Codec ID : V_MPEG4/ISO/AVC
Duration : 1 h 51 min
Bit rate : 5 500 kb/s
Width : 1 280 pixels
Height : 692 pixels
Display aspect ratio : 1.85:1
Frame rate mode : Constant
Frame rate : 23.976 (24000/1001) FPS
Color space : YUV
Chroma subsampling : 4:2:0
Bit depth : 8 bits
Scan type : Progressive
Bits/(Pixel*Frame) : 0.259
Stream size : 4.30 GiB (81%)
Title : seleZen
Writing library : x264 core 148 r2705kMod 3f5ed56
Encoding settings : cabac=1 / ref=9 / deblock=1:-2:-2 / analyse=0x3:0x133 / me=tesa / subme=10 / psy=1 / fade_compensate=0.00 / psy_rd=1.20:0.04 / mixed_ref=1 / me_range=32 / chroma_me=1 / trellis=2 / 8x8dct=1 / cqm=0 / deadzone=21,11 / fast_pskip=0 / chroma_qp_offset=-3 / threads=12 / lookahead_threads=3 / sliced_threads=0 / nr=0 / decimate=0 / interlaced=0 / bluray_compat=0 / constrained_intra=0 / fgo=0 / bframes=10 / b_pyramid=2 / b_adapt=2 / b_bias=0 / direct=3 / weightb=1 / open_gop=0 / weightp=2 / keyint=240 / keyint_min=23 / scenecut=40 / intra_refresh=0 / rc_lookahead=50 / rc=2pass / mbtree=0 / bitrate=5500 / ratetol=1.0 / qcomp=0.60 / qpmin=0 / qpmax=51 / qpstep=4 / cplxblur=20.0 / qblur=0.5 / vbv_maxrate=50000 / vbv_bufsize=62500 / nal_hrd=none / filler=0 / ip_ratio=1.40 / pb_ratio=1.30 / aq=3:0.80
Language : English
Default : Yes
Forced : No

Audio #1
ID : 2
Format : AC-3
Format/Info : Audio Coding 3
Commercial name : Dolby Digital
Codec ID : A_AC3
Duration : 1 h 51 min
Bit rate mode : Constant
Bit rate : 640 kb/s
Channel(s) : 6 channels
Channel layout : L R C LFE Ls Rs
Sampling rate : 48.0 kHz
Frame rate : 31.250 FPS (1536 SPF)
Bit depth : 16 bits
Compression mode : Lossy
Stream size : 512 MiB (9%)
Title : Dub [License]
Language : Russian
Service kind : Complete Main
Default : Yes
Forced : Yes

Audio #2
ID : 3
Format : AC-3
Format/Info : Audio Coding 3
Commercial name : Dolby Digital
Codec ID : A_AC3
Duration : 1 h 51 min
Bit rate mode : Constant
Bit rate : 640 kb/s
Channel(s) : 6 channels
Channel layout : L R C LFE Ls Rs
Sampling rate : 48.0 kHz
Frame rate : 31.250 FPS (1536 SPF)
Bit depth : 16 bits
Compression mode : Lossy
Stream size : 512 MiB (9%)
Title : Original
Language : English
Service kind : Complete Main
Default : No
Forced : No

Text #1
ID : 4
Format : UTF-8
Codec ID : S_TEXT/UTF8
Codec ID/Info : UTF-8 Plain Text
Duration : 1 h 41 min
Bit rate : 1 b/s
Count of elements : 17
Stream size : 838 Bytes (0%)
Title : Forced
Language : Russian
Default : Yes
Forced : Yes

Text #2
ID : 5
Format : UTF-8
Codec ID : S_TEXT/UTF8
Codec ID/Info : UTF-8 Plain Text
Duration : 1 h 51 min
Bit rate : 57 b/s
Count of elements : 1172
Stream size : 47.2 KiB (0%)
Title : Full
Language : Russian
Default : No
Forced : No

Text #3
ID : 6
Format : UTF-8
Codec ID : S_TEXT/UTF8
Codec ID/Info : UTF-8 Plain Text
Duration : 1 h 41 min
Bit rate : 41 b/s
Count of elements : 1209
Stream size : 31.1 KiB (0%)
Title : Full
Language : English
Default : No
Forced : No

Text #4
ID : 7
Format : UTF-8
Codec ID : S_TEXT/UTF8
Codec ID/Info : UTF-8 Plain Text
Duration : 1 h 43 min
Bit rate : 51 b/s
Count of elements : 1565
Stream size : 39.4 KiB (0%)
Title : SDH
Language : English
Default : No
Forced : No

Text #5
ID : 8
Format : UTF-8
Codec ID : S_TEXT/UTF8
Codec ID/Info : UTF-8 Plain Text
Duration : 1 h 43 min
Bit rate : 75 b/s
Count of elements : 1565
Stream size : 56.9 KiB (0%)
Title : SDH Colored
Language : English
Default : No
Forced : No

Menu
00:00:00.000 : en:Глава 01
00:02:49.461 : en:Глава 02
00:06:46.072 : en:Глава 03
00:11:23.766 : en:Глава 04
00:16:33.993 : en:Глава 05
00:19:20.493 : en:Глава 06
00:26:08.233 : en:Глава 07
00:27:46.331 : en:Глава 08
00:31:07.783 : en:Глава 09
00:35:09.024 : en:Глава 10
00:40:44.984 : en:Глава 11
00:46:44.927 : en:Глава 12
00:50:23.938 : en:Глава 13
00:57:15.265 : en:Глава 14
01:01:53.126 : en:Глава 15
01:07:18.785 : en:Глава 16
01:10:11.666 : en:Глава 17
01:14:47.858 : en:Глава 18
01:18:05.055 : en:Глава 19
01:27:55.896 : en:Глава 20
01:37:09.532 : en:Глава 21
01:39:41.100 : en:Глава 22
01:44:02.611 : en:Глава 23

pb.wtf



Скачать Дамбо через торрент http://img16.lostpic.net/2019/06/27/c880c8cebf56729e3e024c16bdff517f.jpg Скачать фильм Дамбо через торрент бесплантно в хорошем качестве Описание: Цирковой импресарио Марк Медичи назначает бывшую звезду цирка Холта Фэрриера и его детей Милли и Джо опекунами новорожденного ... 10 10 3
Торрент: Зарегистрирован [2019-08-08 19:40] · скачан: 48 раз
Статус: √ проверено
Размер: 5.3 GB
Как cкачать? Как скачать Дамбо через торрент | qTorrent

% Раздел Тема Автор DL S | L
Фильмы (Blu-ray, BD-Remux, HDDVD) [ 40.04 GB ] Дамбо / Dumbo [2019 BD Remux 1080p] [2D/3D] DUB [] bober100 Скачать
1 | 0
Фильмы [HD 720p, 1080p] (Хороший звук DUB, MVO) [ 11.65 GB ] Дамбо / Dumbo [2019 BDRip-HEVC 1080p ] DUB [] bober100 Скачать
6 | 0
Фильмы (HD 720p, 1080p) (48-60 fps) [ 4.77 GB ] Дамбо / Dumbo [2019 BDRip-HEVC 1080p 60fps Dub Original] Tiberiumsun69 Скачать
6 | 0
Фильмы 2019 [DVDrip, WEB-DLRip, HDrip] (DUB, MVO) [ 2.38 GB ] Дамбо / Dumbo [2019 BDRip-AVC] [] - ExKinoRay Enigma2010 Скачать
34 | 0
Ultra HD (UHD: 2K, 4K, 8K) — видео сверхвысокой чёткости [ 50.39 GB ] Дамбо / Dumbo [2019 UHD BDRemux 2160p] DUB [] bober100 Скачать
2 | 0
Фильмы (Blu-ray, BD-Remux, HDDVD) [ 28.09 GB ] Дамбо / Dumbo [2019 BD Remux 1080p] DUB [] bober100 Скачать
1 | 0
Фильмы 2019 [DVDrip, WEB-DLRip, HDrip] (DUB, MVO) [ 1.47 GB ] Дамбо / Dumbo [2019 BDRip] DUB [] bober100 Скачать
5 | 0


>> Регистрируемся здесь <<






Отзывы и комментарии о схеме читаем и пишем здесь: ---> Отзывы и комментарии о схеме

Новые благодарочки в телеграм довольных пользователей:
скриншот   скриншот   скриншот   скриншот   скриншот
    Дорогой пользователь! Огромная просьба, поблагодарите релизера, оцените раздачу и оставьте свои комментарий, если Вы скачали Дамбо через торрент бесплатно! Внесите свою лепту в развитие PiratBit!
    Комментировать посты могут только пользователи прошедшие не сложную регистрацию
    Показать сообщения:    

    Дамбо через торрент
    Скачать бесплатно Дамбо
    Дамбо скачать торрент
    Дамбо смотреть онлайн
    Cкачать фильм Дамбо бесплатно
    Дамбо скачать торрент в хорошем качестве
    Дамбо смотреть онлайн бесплатно в хорошем качестве


    Вы не можете начинать темы
    Вы не можете отвечать на сообщения
    Вы не можете редактировать свои сообщения
    Вы не можете удалять свои сообщения
    Вы не можете голосовать в опросах
    Вы не можете прикреплять файлы к сообщениям
    Вы можете скачивать файлы