Ссылка на приватное зеркало нашего сайта всего за 1$. Внимание количество ограничено!!!

2 сезон

iTunes

1 сезон

1

2 сезон

2 сезон

iTunes

1 сезон

RePack

30

Новинка

ВАЖНО

ИГРА 18+

pack

RePack

MK11
pack

Забери бонус

RePack

jed

!!Акция!!

Alien_Rage

RePack

fifa19

RePack

Assassins Creed: Odyssey

RePack

NEED FOR SPEED™ PAYBACK

4 сезон

9 сезон

Бесстыжие 9 сезон

Все сериалы

все сериалы на PB.wtf

RePack

FAR CRY 5
  

Дамбо / Dumbo (Тим Бёртон) [2019, фэнтези, семейный, BD Remux 1080p] DUB [Лицензия] pb.wtf

Дамбо через торрент pb.wtf

Размер: 28.09 GB | Добавлен: 1 год 3 мес. назад | Торрент скачан:21 раз
Скачать  

08-08-2019 19:44 Дамбо Скачать торрент  

Дамбо / Dumbo««In 2019, a beloved tale will take you to new heights»»
Год выпуска: 2019
Страна: США
Жанр: фэнтези, семейный
Продолжительность: 01:51:56
Перевод: Дублированный | Лицензия
Субтитры: Русские (Forced, full), английские

Режиссер: Тим Бёртон

rating

В ролях:

Колин Фаррелл (Holt Farrier), Майкл Китон (V. A. Vandevere), Дэнни ДеВито (Max Medici), Ева Грин (Colette Marchant), Алан Аркин (J. Griffin Remington), Нико Паркер (Milly Farrier), Finley Hobbins (Joe Farrier), Рошан Сет (Pramesh Singh), Ларс Айдингер (Hans Brugelbecker), Деобиа Опарей (Rongo), Джозеф Гатт (Neils Skellig), Мигель Муньос Сегура (Ivan the Wonderful)
Описание: Цирковой импресарио Марк Медичи назначает бывшую звезду цирка Холта Фэрриера и его детей Милли и Джо опекунами новорожденного слонёнка, чьи невероятно большие уши сразу становятся предметом для постоянных шуток и насмешек коллег Холта по цеху. Внезапно узнав, что Дамбо умеет летать, владелец цирка решает нажиться на необычных способностях слонёнка. К делу подключается энергичный предприниматель В. А. Вэндевер, который решает сделать из малыша Дамбо главную звезду своего нового грандиозного развлекательного предприятия «Сказочная страна».

Качество: BD Remux 1080p
Формат: MKV

Видео: MPEG-4 AVC, 1920x1080, 30.3 Mbit/s, 23.976 fps
Аудио#1: 48 kHz, AC3, 5.1, 640 Kbps | Лицензия | RUS |
Аудио#2: 48 kHz, DTS-HD MA, 7.1, 5022 Kbps | Оригинал | ENG |
скриншот  скриншот  скриншот  скриншот  скриншот  

General
Unique ID : 191381650167276591650382242784813502913 (0x8FFAC3DCB2C91A3ACC82E743020BD1C1)
Complete name : D:Video111Dumbo.2019.Lic.BDREMUX.1080p.seleZen.mkv
Format : Matroska
Format version : Version 4
File size : 28.1 GiB
Duration : 1 h 51 min
Overall bit rate mode : Variable
Overall bit rate : 35.9 Mb/s
Movie name : Dumbo 2019 from селезень
Encoded date : UTC 2019-08-08 19:34:12
Writing application : mkvmerge v22.0.0 ('At The End Of The World') 64-bit
Writing library : libebml v1.3.5 + libmatroska v1.4.8

Video
ID : 1
Format : AVC
Format/Info : Advanced Video Codec
Format profile : High@L4.1
Format settings : CABAC / 4 Ref Frames
Format settings, CABAC : Yes
Format settings, Reference : 4 frames
Codec ID : V_MPEG4/ISO/AVC
Duration : 1 h 51 min
Bit rate mode : Variable
Bit rate : 30.3 Mb/s
Maximum bit rate : 33.0 Mb/s
Width : 1 920 pixels
Height : 1 080 pixels
Display aspect ratio : 16:9
Frame rate mode : Constant
Frame rate : 23.976 (24000/1001) FPS
Color space : YUV
Chroma subsampling : 4:2:0
Bit depth : 8 bits
Scan type : Progressive
Bits/(Pixel*Frame) : 0.609
Stream size : 23.7 GiB (84%)
Language : English
Default : Yes
Forced : No

Audio #1
ID : 2
Format : AC-3
Format/Info : Audio Coding 3
Commercial name : Dolby Digital
Codec ID : A_AC3
Duration : 1 h 51 min
Bit rate mode : Constant
Bit rate : 640 kb/s
Channel(s) : 6 channels
Channel layout : L R C LFE Ls Rs
Sampling rate : 48.0 kHz
Frame rate : 31.250 FPS (1536 SPF)
Bit depth : 16 bits
Compression mode : Lossy
Stream size : 512 MiB (2%)
Title : Dub [License]
Language : Russian
Service kind : Complete Main
Default : Yes
Forced : Yes

Audio #2
ID : 3
Format : DTS XLL
Format/Info : Digital Theater Systems
Commercial name : DTS-HD Master Audio
Codec ID : A_DTS
Duration : 1 h 51 min
Bit rate mode : Variable
Bit rate : 5 022 kb/s
Channel(s) : 8 channels
Channel layout : C L R LFE Lb Rb Lss Rss
Sampling rate : 48.0 kHz
Frame rate : 93.750 FPS (512 SPF)
Bit depth : 24 bits
Compression mode : Lossless
Stream size : 3.93 GiB (14%)
Title : Original
Language : English
Default : No
Forced : No

Text #1
ID : 4
Format : UTF-8
Codec ID : S_TEXT/UTF8
Codec ID/Info : UTF-8 Plain Text
Duration : 1 h 41 min
Bit rate : 1 b/s
Count of elements : 17
Stream size : 838 Bytes (0%)
Title : Forced
Language : Russian
Default : Yes
Forced : Yes

Text #2
ID : 5
Format : UTF-8
Codec ID : S_TEXT/UTF8
Codec ID/Info : UTF-8 Plain Text
Duration : 1 h 51 min
Bit rate : 57 b/s
Count of elements : 1172
Stream size : 47.2 KiB (0%)
Title : Full
Language : Russian
Default : No
Forced : No

Text #3
ID : 6
Format : UTF-8
Codec ID : S_TEXT/UTF8
Codec ID/Info : UTF-8 Plain Text
Duration : 1 h 41 min
Bit rate : 41 b/s
Count of elements : 1209
Stream size : 31.1 KiB (0%)
Title : Full
Language : English
Default : No
Forced : No

Text #4
ID : 7
Format : UTF-8
Codec ID : S_TEXT/UTF8
Codec ID/Info : UTF-8 Plain Text
Duration : 1 h 43 min
Bit rate : 51 b/s
Count of elements : 1565
Stream size : 39.4 KiB (0%)
Title : SDH
Language : English
Default : No
Forced : No

Text #5
ID : 8
Format : UTF-8
Codec ID : S_TEXT/UTF8
Codec ID/Info : UTF-8 Plain Text
Duration : 1 h 43 min
Bit rate : 75 b/s
Count of elements : 1565
Stream size : 56.9 KiB (0%)
Title : SDH Colored
Language : English
Default : No
Forced : No

Menu
00:00:00.000 : en:00:00:00.000
00:02:49.461 : en:00:02:49.461
00:06:46.072 : en:00:06:46.072
00:11:23.766 : en:00:11:23.766
00:16:33.993 : en:00:16:33.993
00:19:20.493 : en:00:19:20.493
00:26:08.233 : en:00:26:08.233
00:27:46.331 : en:00:27:46.331
00:31:07.783 : en:00:31:07.783
00:35:09.024 : en:00:35:09.024
00:40:44.984 : en:00:40:44.984
00:46:44.927 : en:00:46:44.927
00:50:23.938 : en:00:50:23.938
00:57:15.265 : en:00:57:15.265
01:01:53.126 : en:01:01:53.126
01:07:18.785 : en:01:07:18.785
01:10:11.666 : en:01:10:11.666
01:14:47.858 : en:01:14:47.858
01:18:05.055 : en:01:18:05.055
01:27:55.896 : en:01:27:55.896
01:37:09.532 : en:01:37:09.532
01:39:41.100 : en:01:39:41.100
01:44:02.611 : en:01:44:02.611

pb.wtf



Скачать Дамбо через торрент http://img16.lostpic.net/2019/06/27/c880c8cebf56729e3e024c16bdff517f.jpg Скачать фильм Дамбо через торрент бесплантно в хорошем качестве Описание: Цирковой импресарио Марк Медичи назначает бывшую звезду цирка Холта Фэрриера и его детей Милли и Джо опекунами новорожденного ... 10 10 4
Торрент: Зарегистрирован [2019-08-08 19:44] · скачан: 21 раз
Статус: √ проверено
Размер: 28.09 GB
Как cкачать? Как скачать Дамбо через торрент | qTorrent

% Раздел Тема Автор DL S | L
Фильмы (Blu-ray, BD-Remux, HDDVD) [ 40.04 GB ] Дамбо / Dumbo [2019 BD Remux 1080p] [2D/3D] DUB [] bober100 Скачать
1 | 0
Фильмы [HD 720p, 1080p] (Хороший звук DUB, MVO) [ 11.65 GB ] Дамбо / Dumbo [2019 BDRip-HEVC 1080p ] DUB [] bober100 Скачать
1 | 0
Фильмы (HD 720p, 1080p) (48-60 fps) [ 4.77 GB ] Дамбо / Dumbo [2019 BDRip-HEVC 1080p 60fps Dub Original] Tiberiumsun69 Скачать
4 | 0
Фильмы 2019-2020 [DVDrip, WEB-DLRip, HDrip] (DUB, MVO) [ 2.38 GB ] Дамбо / Dumbo [2019 BDRip-AVC] [] - ExKinoRay Enigma2010 Скачать
17 | 0
Ultra HD (UHD: 2K, 4K, 8K) — видео сверхвысокой чёткости [ 50.39 GB ] Дамбо / Dumbo [2019 UHD BDRemux 2160p] DUB [] bober100 Скачать
1 | 0
Фильмы 2019-2020 [DVDrip, WEB-DLRip, HDrip] (DUB, MVO) [ 1.47 GB ] Дамбо / Dumbo [2019 BDRip] DUB [] bober100 Скачать
2 | 0
Фильмы [HD 720p, 1080p] (Хороший звук DUB, MVO) [ 5.3 GB ] Дамбо / Dumbo [2019 BDRip 720p] DUB [] bober100 Скачать
1 | 0

28-11-2019 20:33  

Отключить всю рекламу на сайте

    Дорогой пользователь! Огромная просьба, поблагодарите релизера, оцените раздачу и оставьте свои комментарий, если Вы скачали Дамбо через торрент бесплатно! Внесите свою лепту в развитие PiratBit!
    Комментировать посты могут только пользователи прошедшие не сложную регистрацию
    Показать сообщения:    

    Дамбо через торрент
    Скачать бесплатно Дамбо
    Дамбо скачать торрент
    Дамбо смотреть онлайн
    Cкачать фильм Дамбо бесплатно
    Дамбо скачать торрент в хорошем качестве
    Дамбо смотреть онлайн бесплатно в хорошем качестве


    Вы не можете начинать темы
    Вы не можете отвечать на сообщения
    Вы не можете редактировать свои сообщения
    Вы не можете удалять свои сообщения
    Вы не можете голосовать в опросах
    Вы не можете прикреплять файлы к сообщениям
    Вы можете скачивать файлы