новый адрес пиратбит piratbit
Мега распродажа FORZA HORIZON 4 ULTIMATE+ВСЕ DLC+ОНЛАЙН всего за 499р. 349 руб. (супер цена). Внимание количество ограничено!!!

iTunes

1+1

iTunes

мы

iTunes

1

iTunes

Чернобыль

iTunes

Ральф против интернета

Лицензия

ПШазам

Лицензия

Игра престолов

Лицензия

30
pack

ВАЖНО

!!Акция!!

Alien_RageХит недели

RePack

Resident Evil 21

ИГРА 18+

pack

RePack

Metro:Exodus

!!Акция!!

Alien_Rage

RePack

fifa19

RePack

Assassins Creed: Odyssey

RePack

NEED FOR SPEED™ PAYBACK

3 сезон

9 сезон

Бесстыжие 9 сезон

Все сериалы

все сериалы на PB.wtf

RePack

FAR CRY 5
Ребята, катастрофически не хватает 1900р. для оплаты серверов за Октябрь (всвязи с блокировками трафик упал в 3 раза), 1-2р., выручайте.
  

Дамбо / Dumbo (Тим Бёртон) [2019, фэнтези, семейный, UHD BDRemux 2160p] DUB [Лицензия] pb.wtf

Дамбо через торрент pb.wtf

Размер: 50.39 GB | Добавлен: 3 мес. 3 д. назад | Торрент скачан:29 раз
Скачать  

08-08-2019 20:16 Дамбо Скачать торрент  

Дамбо / Dumbo««In 2019, a beloved tale will take you to new heights»»
Год выпуска: 2019
Страна: США
Жанр: фэнтези, семейный
Продолжительность: 01:51:56
Перевод: Дублированный | Лицензия
Субтитры: Русские (Forced, full), английские

Режиссер: Тим Бёртон

rating

В ролях:

Колин Фаррелл (Holt Farrier), Майкл Китон (V. A. Vandevere), Дэнни ДеВито (Max Medici), Ева Грин (Colette Marchant), Алан Аркин (J. Griffin Remington), Нико Паркер (Milly Farrier), Finley Hobbins (Joe Farrier), Рошан Сет (Pramesh Singh), Ларс Айдингер (Hans Brugelbecker), Деобиа Опарей (Rongo), Джозеф Гатт (Neils Skellig), Мигель Муньос Сегура (Ivan the Wonderful)
Описание: Цирковой импресарио Марк Медичи назначает бывшую звезду цирка Холта Фэрриера и его детей Милли и Джо опекунами новорожденного слонёнка, чьи невероятно большие уши сразу становятся предметом для постоянных шуток и насмешек коллег Холта по цеху. Внезапно узнав, что Дамбо умеет летать, владелец цирка решает нажиться на необычных способностях слонёнка. К делу подключается энергичный предприниматель В. А. Вэндевер, который решает сделать из малыша Дамбо главную звезду своего нового грандиозного развлекательного предприятия «Сказочная страна».

Качество: UHD BDRemux 2160p
Формат: MKV

Видео: 3840x2160 at 23.976 fps, MPEG-H HEVC HDR Video, 58200 kbps avg
Аудио#1: 48 kHz, AC3, 5.1, 640 Kbps | Лицензия | RUS |
Аудио#2: 48 kHz, TrueHD, 7.1, 4916 Kbps | Оригинал | ENG |
Аудио#3: 48 kHz, AC3, 5.1, 640 Kbps | Оригинал | ENG |
скриншот  скриншот  скриншот  скриншот  скриншот  

General
Unique ID : 192506806234387379288596210343761243552 (0x90D37656D6138F2DDFE74862F1AD6DA0)
Complete name : D:Video111Dumbo.2019.Lic.BDREMUX.2160p.HDR.seleZen.mkv
Format : Matroska
Format version : Version 4
File size : 50.4 GiB
Duration : 1 h 51 min
Overall bit rate mode : Variable
Overall bit rate : 64.5 Mb/s
Movie name : Dumbo 2019 4K from селезень
Encoded date : UTC 2019-08-08 19:39:35
Writing application : mkvmerge v22.0.0 ('At The End Of The World') 64-bit
Writing library : libebml v1.3.5 + libmatroska v1.4.8

Video
ID : 1
Format : HEVC
Format/Info : High Efficiency Video Coding
Format profile : Main 10@L5.1@High
HDR format : SMPTE ST 2086, HDR10 compatible
Codec ID : V_MPEGH/ISO/HEVC
Duration : 1 h 51 min
Bit rate : 58.2 Mb/s
Width : 3 840 pixels
Height : 2 160 pixels
Display aspect ratio : 16:9
Frame rate mode : Constant
Frame rate : 23.976 (24000/1001) FPS
Color space : YUV
Chroma subsampling : 4:2:0 (Type 2)
Bit depth : 10 bits
Bits/(Pixel*Frame) : 0.293
Stream size : 45.5 GiB (90%)
Language : English
Default : Yes
Forced : No
Color range : Limited
Color primaries : BT.2020
Transfer characteristics : PQ
Matrix coefficients : BT.2020 non-constant
Mastering display color pri : Display P3
Mastering display luminance : min: 0.0050 cd/m2, max: 4000 cd/m2

Audio #1
ID : 2
Format : AC-3
Format/Info : Audio Coding 3
Commercial name : Dolby Digital
Codec ID : A_AC3
Duration : 1 h 51 min
Bit rate mode : Constant
Bit rate : 640 kb/s
Channel(s) : 6 channels
Channel layout : L R C LFE Ls Rs
Sampling rate : 48.0 kHz
Frame rate : 31.250 FPS (1536 SPF)
Bit depth : 16 bits
Compression mode : Lossy
Stream size : 512 MiB (1%)
Title : Dub [License]
Language : Russian
Service kind : Complete Main
Default : Yes
Forced : Yes

Audio #2
ID : 3
Format : MLP FBA 16-ch
Format/Info : Meridian Lossless Packing FBA with 16-channel presentation
Commercial name : Dolby TrueHD with Dolby Atmos
Codec ID : A_TRUEHD
Duration : 1 h 51 min
Bit rate mode : Variable
Bit rate : 4 916 kb/s
Maximum bit rate : 7 476 kb/s
Channel(s) : 8 channels
Channel layout : L R C LFE Ls Rs Lb Rb
Sampling rate : 48.0 kHz
Frame rate : 1 200.000 FPS (40 SPF)
Compression mode : Lossless
Stream size : 3.84 GiB (8%)
Title : Original
Language : English
Default : No
Forced : No
Number of dynamic objects : 13
Bed channel count : 1 channel
Bed channel configuration : LFE

Audio #3
ID : 4
Format : AC-3
Format/Info : Audio Coding 3
Commercial name : Dolby Digital
Codec ID : A_AC3
Duration : 1 h 51 min
Bit rate mode : Constant
Bit rate : 640 kb/s
Channel(s) : 6 channels
Channel layout : L R C LFE Ls Rs
Sampling rate : 48.0 kHz
Frame rate : 31.250 FPS (1536 SPF)
Bit depth : 16 bits
Compression mode : Lossy
Stream size : 512 MiB (1%)
Language : English
Service kind : Complete Main
Default : No
Forced : No

Text #1
ID : 5
Format : UTF-8
Codec ID : S_TEXT/UTF8
Codec ID/Info : UTF-8 Plain Text
Duration : 1 h 41 min
Bit rate : 1 b/s
Count of elements : 17
Stream size : 838 Bytes (0%)
Title : Forced
Language : Russian
Default : Yes
Forced : Yes

Text #2
ID : 6
Format : UTF-8
Codec ID : S_TEXT/UTF8
Codec ID/Info : UTF-8 Plain Text
Duration : 1 h 51 min
Bit rate : 57 b/s
Count of elements : 1172
Stream size : 47.2 KiB (0%)
Title : Full
Language : Russian
Default : No
Forced : No

Text #3
ID : 7
Format : UTF-8
Codec ID : S_TEXT/UTF8
Codec ID/Info : UTF-8 Plain Text
Duration : 1 h 41 min
Bit rate : 41 b/s
Count of elements : 1209
Stream size : 31.1 KiB (0%)
Title : Full
Language : English
Default : No
Forced : No

Text #4
ID : 8
Format : UTF-8
Codec ID : S_TEXT/UTF8
Codec ID/Info : UTF-8 Plain Text
Duration : 1 h 43 min
Bit rate : 51 b/s
Count of elements : 1565
Stream size : 39.4 KiB (0%)
Title : SDH
Language : English
Default : No
Forced : No

Text #5
ID : 9
Format : UTF-8
Codec ID : S_TEXT/UTF8
Codec ID/Info : UTF-8 Plain Text
Duration : 1 h 43 min
Bit rate : 75 b/s
Count of elements : 1565
Stream size : 56.9 KiB (0%)
Title : SDH Colored
Language : English
Default : No
Forced : No

Menu
00:00:00.000 : en:Casey Jr.'s Back
00:02:49.461 : en:Homecoming
00:06:46.072 : en:Medici's Investment
00:11:23.766 : en:Baby Jumbo
00:16:33.993 : en:Welcome To The Circus
00:19:20.493 : en:Under The Big Top
00:26:08.233 : en:"Baby Mine"
00:27:46.331 : en:Goodbye, Mrs. Jumbo
00:31:07.783 : en:Magic Feather
00:35:09.024 : en:"Fly, Dumbo, Fly!"
00:40:44.984 : en:V. A. Vandevere
00:46:44.927 : en:Dreamland
00:50:23.938 : en:Preparing For Takeoff
00:57:15.265 : en:Pink Elephants
01:01:53.126 : en:Queen Of The Heavens
01:07:18.785 : en:Nightmare Island
01:10:11.666 : en:Separated Again
01:14:47.858 : en:The Troupe Unites
01:18:05.055 : en:One Last Time
01:27:55.896 : en:The Rescue
01:37:09.532 : en:Saying Goodbye
01:39:41.100 : en:Anything Is Possible
01:44:02.611 : en:End Credits

pb.wtf



Скачать Дамбо через торрент http://img15.lostpic.net/2019/06/27/64b7532fa9bfb31390ddfa1dbada3945.jpg Скачать фильм Дамбо через торрент бесплантно в хорошем качестве Описание: Цирковой импресарио Марк Медичи назначает бывшую звезду цирка Холта Фэрриера и его детей Милли и Джо опекунами новорожденного ... 10 10 2
Торрент: Зарегистрирован [2019-08-08 20:16] · скачан: 29 раз
Статус: √ проверено
Размер: 50.39 GB
Как cкачать? Как скачать Дамбо через торрент | qTorrent

% Раздел Тема Автор DL S | L
Фильмы (Blu-ray, BD-Remux, HDDVD) [ 40.04 GB ] Дамбо / Dumbo [2019 BD Remux 1080p] [2D/3D] DUB [] bober100 Скачать
1 | 0
Фильмы [HD 720p, 1080p] (Хороший звук DUB, MVO) [ 11.65 GB ] Дамбо / Dumbo [2019 BDRip-HEVC 1080p ] DUB [] bober100 Скачать
2 | 0
Фильмы (HD 720p, 1080p) (48-60 fps) [ 4.77 GB ] Дамбо / Dumbo [2019 BDRip-HEVC 1080p 60fps Dub Original] Tiberiumsun69 Скачать
5 | 2
Фильмы 2019 [DVDrip, WEB-DLRip, HDrip] (DUB, MVO) [ 2.38 GB ] Дамбо / Dumbo [2019 BDRip-AVC] [] - ExKinoRay Enigma2010 Скачать
22 | 1
Фильмы (Blu-ray, BD-Remux, HDDVD) [ 28.09 GB ] Дамбо / Dumbo [2019 BD Remux 1080p] DUB [] bober100 Скачать
1 | 0
Фильмы 2019 [DVDrip, WEB-DLRip, HDrip] (DUB, MVO) [ 1.47 GB ] Дамбо / Dumbo [2019 BDRip] DUB [] bober100 Скачать
5 | 0
Фильмы [HD 720p, 1080p] (Хороший звук DUB, MVO) [ 5.3 GB ] Дамбо / Dumbo [2019 BDRip 720p] DUB [] bober100 Скачать
3 | 0


>> Регистрируемся здесь <<






Отзывы и комментарии о схеме читаем и пишем здесь: ---> Отзывы и комментарии о схеме

Новые благодарочки в телеграм довольных пользователей:
скриншот   скриншот   скриншот   скриншот   скриншот
    Дорогой пользователь! Огромная просьба, поблагодарите релизера, оцените раздачу и оставьте свои комментарий, если Вы скачали Дамбо через торрент бесплатно! Внесите свою лепту в развитие PiratBit!
    Комментировать посты могут только пользователи прошедшие не сложную регистрацию
    Показать сообщения:    

    Дамбо через торрент
    Скачать бесплатно Дамбо
    Дамбо скачать торрент
    Дамбо смотреть онлайн
    Cкачать фильм Дамбо бесплатно
    Дамбо скачать торрент в хорошем качестве
    Дамбо смотреть онлайн бесплатно в хорошем качестве


    Вы не можете начинать темы
    Вы не можете отвечать на сообщения
    Вы не можете редактировать свои сообщения
    Вы не можете удалять свои сообщения
    Вы не можете голосовать в опросах
    Вы не можете прикреплять файлы к сообщениям
    Вы можете скачивать файлы