2 сезон

iTunes

MVO

1

2 сезон

iTunes

iTunes

1 сезон

RePack

30

Новинка

ВАЖНО

ИГРА 18+

pack

RePack

MK11
pack

Легкие деньги

RePack

jed

RePack

fifa19

RePack

RDR2

RePack

NEED FOR SPEED™ PAYBACK

4 сезон

9 сезон

Бесстыжие 9 сезон

Все сериалы

все сериалы на PB.wtf

RePack

FAR CRY 5

Anonymous, добрый вечер, мы не успеваем собрать деньги на оплату серверов за декабрь и январь, помогите нам пожалуйста в это трудное время. В качестве благодарности мы отключим Вам всю рекламу на сайте (укажите свой ник в строку Ваше имя)!

×
  
Magnet ссылка

Проповедник / Пастырь / Preacher / Сезон: 4 / Серии: 1-10 из 10 (Майкл Словис, Эван Голдберг, Сет Роген) [2019, Фэнтези, драма, детектив, приключения, WEB-DL 1080p] MVO [AlexFilm] pb.wtf

Проповедник через торрент pb.wtf

Размер: 25.11 GB | Добавлен: 1 год 3 мес. назад | Торрент скачан:13 раз
Скачать  

08-08-2019 21:15 Проповедник Скачать торрент  

Проповедник | Пастырь | Preacher
Год выпуска: 2019
Страна: США
Жанр: Фэнтези, драма, детектив, приключения
Продолжительность: ~00:43:00
Перевод: Профессиональный (многоголосый закадровый) | AlexFilm
Субтитры: Русские (Forced, Full |«Amazon»|, английские (Forced, Full, SDH)

Режиссёр: Майкл Словис, Эван Голдберг, Сет Роген

В ролях: Доминик Купер, Том Брук, У. Эрл Браун, Йен Коллетти, Джозеф Гилган, Люси Гриффитс, Джеки Эрл Хейли, Рут Негга, Дерек Уилсон, Анатол Юсеф и др.

Описание: Священник Джесси Кастер по воле случая стал носителем внутри своего естества странного существа по имени Генезис. Это дитя совокупления ангела и демона представляет собой одновременно чистый идеал и квинтэссенцию света, но также сгусток абсолютного зла. Генезис — единственное существо во Вселенной, которое может встать вровень с Богом, если того пожелает, а его носитель автоматически становится самым могущественным существом в материальном мире. И это проповедник Кастер.



Качество: WEB-DL 1080p
Формат: MKV
Видео: AVC, 1920x1080 (16:9), 23,976 fps, ~ 6000 Kbps
Аудио №1: AC3, 48,0 kHz, 6 ch, 384 kbps | AlexFilm
Аудио №2: AC3, 48,0 kHz, 6 ch, 640 kbps | Original


Реклама: Отсутствует

Исходник: Preacher.S04.1080p.AMZN.WEB-DL.DDP5.1.x264-NTG
01. Masada / Масада
02. Last Supper / Тайная вечеря
Complete name : C:\Preacher_(s04)_AlexFilm_1080p\Preacher.2019.S04E01.Masada.REPACK.1080p.AMZN.WEB-DL.DD5.1.x264-NTG_EniaHD.mkv
Format : Matroska
Format version : Version 2
File size : 2.08 GiB
Duration : 41 min 29 s
Overall bit rate : 7 187 kb/s
Encoded date : UTC 2019-08-08 20:37:30
Writing application : mkvmerge v4.9.1 ('Ich will') сборка от Jul 11 2011 23:53:15
Writing library : libebml v1.2.1 + libmatroska v1.1.1

Video
ID : 1
Format : AVC
Format/Info : Advanced Video Codec
Format profile : High@L4
Format settings : CABAC / 4 Ref Frames
Format settings, CABAC : Yes
Format settings, ReFrames : 4 frames
Codec ID : V_MPEG4/ISO/AVC
Duration : 41 min 29 s
Bit rate mode : Constant
Bit rate : 6 020 kb/s
Nominal bit rate : 10 000 kb/s
Width : 1 920 pixels
Height : 1 080 pixels
Display aspect ratio : 16:9
Frame rate mode : Constant
Frame rate : 23.976 (24000/1001) FPS
Color space : YUV
Chroma subsampling : 4:2:0
Bit depth : 8 bits
Scan type : Progressive
Bits/(Pixel*Frame) : 0.121
Stream size : 1.74 GiB (84%)
Title : Release by EniaHD
Default : Yes
Forced : No
Color range : Limited
Color primaries : BT.709
Transfer characteristics : BT.709
Matrix coefficients : BT.709

Audio #1
ID : 2
Format : AC-3
Format/Info : Audio Coding 3
Commercial name : Dolby Digital
Codec ID : A_AC3
Duration : 41 min 29 s
Bit rate mode : Constant
Bit rate : 384 kb/s
Channel(s) : 6 channels
Channel layout : L R C LFE Ls Rs
Sampling rate : 48.0 kHz
Frame rate : 31.250 FPS (1536 SPF)
Bit depth : 16 bits
Compression mode : Lossy
Stream size : 114 MiB (5%)
Title : AlexFilm
Language : Russian
Service kind : Complete Main
Default : Yes
Forced : No

Audio #2
ID : 3
Format : AC-3
Format/Info : Audio Coding 3
Commercial name : Dolby Digital
Codec ID : A_AC3
Duration : 41 min 29 s
Bit rate mode : Constant
Bit rate : 640 kb/s
Channel(s) : 6 channels
Channel layout : L R C LFE Ls Rs
Sampling rate : 48.0 kHz
Frame rate : 31.250 FPS (1536 SPF)
Bit depth : 16 bits
Compression mode : Lossy
Stream size : 190 MiB (9%)
Language : English
Service kind : Complete Main
Default : No
Forced : No

Text #1
ID : 4
Format : UTF-8
Codec ID : S_TEXT/UTF8
Codec ID/Info : UTF-8 Plain Text
Title : Forced
Language : Russian
Default : Yes
Forced : No

Text #2
ID : 5
Format : UTF-8
Codec ID : S_TEXT/UTF8
Codec ID/Info : UTF-8 Plain Text
Title : Full |Amazon|
Language : Russian
Default : No
Forced : No

Text #3
ID : 6
Format : UTF-8
Codec ID : S_TEXT/UTF8
Codec ID/Info : UTF-8 Plain Text
Title : Forced
Language : English
Default : No
Forced : No

Text #4
ID : 7
Format : UTF-8
Codec ID : S_TEXT/UTF8
Codec ID/Info : UTF-8 Plain Text
Title : Full
Language : English
Default : No
Forced : No

Text #5
ID : 8
Format : UTF-8
Codec ID : S_TEXT/UTF8
Codec ID/Info : UTF-8 Plain Text
Title : SDH
Language : English
Default : No
Forced : No
При каждом добавлении создаётся новый торрент. Чтобы начать докачку новой серии, пользователям необходимо сделать следующее:
- остановить скачивание;
- удалить старый торрент у себя из клиента (старые серии удалять не надо);
- скачать новый торрент и запустить его у себя в клиенте вместо старого, при этом указать клиенту путь в старую папку, куда и должно происходить скачивание новых серий.
pb.wtf



Скачать Проповедник через торрент https://d.radikal.ru/d24/1908/bd/e7a8919d27f7.png Скачать фильм Проповедник через торрент бесплантно в хорошем качестве Описание: Священник Джесси Кастер по воле случая стал носителем внутри своего естества странного существа по имени Генезис. Это дитя ... 10 10 4
Торрент: Зарегистрирован [2019-10-01 07:23] · скачан: 13 раз
Статус: √ проверено
Размер: 25.11 GB
Как cкачать? Как скачать Проповедник через торрент | UTorrent

% Раздел Тема Автор DL S | L
Зарубежные сериалы [ 8.47 GB ] Пастырь / Проповедник / Preacher / Сезон: 4 / Серии: 1-10 из 10 [2019 WEB-DLRip] DVO [Кубик в Кубе] bober100 Скачать
1 | 0
Зарубежные сериалы [ 25.89 GB ] Проповедник / Пастырь / Preacher / Сезон: 4 / Серии: 1-10 из 10 [2019 WEB-DL 1080p] DVO [Кубик в Кубе] bober100 Скачать
3 | 0
Зарубежные сериалы [ 25.9 GB ] Пастырь / Проповедник / Preacher / Сезон: 4 / Серии: 1-10 из 10 [2019 WEB-DL 1080p] MVO [Lostfilm] bober100 Скачать
1 | 0
Зарубежные сериалы [ 6.14 GB ] Проповедник / Пастырь / Preacher / Сезон: 4 / Серии: 1-10 из 10 [2019 WEB-DLRip] MVO [AlexFilm] bober100 Скачать
1 | 0
Зарубежные сериалы [ 12.84 GB ] Проповедник / Пастырь / Preacher / Сезон: 4 / Серии: 1-10 из 10 [2019 WEB-DL 720p] [MVO] killermax2013 Скачать
1 | 0
Зарубежные сериалы [ 13.62 GB ] Пастырь / Проповедник / Preacher / Сезон: 4 / Серии: 1-10 из 10 [2019 WEB-DL 720p] [DVO] killermax2013 Скачать
3 | 0
Зарубежные сериалы [ 12.85 GB ] Пастырь / Проповедник / Preacher / Сезон: 4 / Серии: 1-10 из 10 [2019 WEB-DL 720p] [MVO] killermax2013 Скачать
1 | 0

28-11-2019 20:33  

Отключить всю рекламу на сайте

    Дорогой пользователь! Огромная просьба, поблагодарите релизера, оцените раздачу и оставьте свои комментарий, если Вы скачали Проповедник через торрент бесплатно! Внесите свою лепту в развитие PiratBit!
    Комментировать посты могут только пользователи прошедшие не сложную регистрацию
    Показать сообщения:    

    Проповедник через торрент
    Скачать бесплатно Проповедник
    Проповедник скачать торрент
    Проповедник смотреть онлайн
    Cкачать фильм Проповедник бесплатно
    Проповедник скачать торрент в хорошем качестве
    Проповедник смотреть онлайн бесплатно в хорошем качестве


    Вы не можете начинать темы
    Вы не можете отвечать на сообщения
    Вы не можете редактировать свои сообщения
    Вы не можете удалять свои сообщения
    Вы не можете голосовать в опросах
    Вы не можете прикреплять файлы к сообщениям
    Вы можете скачивать файлы