Всегда рабочее зеркало без VPN и Proxy просто перед .vidak.icu напиши любое слово или цифру, Пример http://1ewg.vidak.icu

Лицензия

MVO

1 сезон

1

1 сезон

iTunes

1 сезон

13

1 сезон

Deluxe

pack

Рекомендуем

Repack

30

ВАЖНО

RePack

MK11

RePack

jed

RePack

fifa19

RePack

RDR2

RePack

NEED FOR SPEED™ PAYBACK

Кинопоиск HD

6 сезон

 Острые козырьки 6 сезон

Все сериалы

все сериалы на PB.wtf

RePack

FAR CRY 5
  
Magnet ссылка

Джеймс Бонд 007: Лицензия на убийство / James Bond 007: Licence to Kill (Джон Глен) [1989, Боевик, триллер, приключения, UHD WEB-DL 2160p] [SDR] DUB+DVO+2xMVO+3xAVO pb.wtf

Джеймс Бонд 007: Лицензия на убийство через торрент pb.wtf

Размер: 20.08 GB | Добавлен: 3 года назад | Торрент скачан:18 раз
Смотреть онлайн Джеймс Бонд 007: Лицензия на убийство | Скачать    Ребята, помогите собрать деньги на оплату серверов!!!

08-08-2019 22:30 Джеймс Бонд 007: Лицензия на убийство Скачать торрент  

Джеймс Бонд 007: Лицензия на убийство / James Bond 007: Licence to Kill
Год выпуска: 1989
Страна: США, Великобритания
Жанр: Боевик, триллер, приключения
Продолжительность: 02:13:20
Перевод: Дублированный, профессиональный многоголосый, профессиональный двухголосый, авторский
Субтитры: Русские (полные), Английские (full, SDH)

Режиссер: Джон Глен

rating

В ролях: Тимоти Далтон, Кэри Лоуэлл, Роберт Дави, Талиса Сото, Энтони Зербе, Фрэнк МакРей, Дэвид Хедисон, Уэйн Ньютон, Бенисио Дель Торо, Энтони Старк, Эверетт МакГилл, Дезмонд Льюэлин, Педро Армендарис мл., Роберт Браун, Присцилла Барнс, Дон Страуд, Кэролин Блисс, Кэри-Хироюки Тагава, Гранд Л. Буш, Алехандро Брачо, Гай Де Сэйнт Кир, Рэфер Джонсон, Диана Ли Хсю, Кристофер Ним, Джанин Бисиньяно, Клаудио Брук, Синтия Фэллон, Энрике Нови, Джордж Беланжер, Роджер Кадни, Онорато Магалони, Хорхе Руссек, Серджо Корона, Стюарт Квон, Тереза Блейк, Сэмюэл Бенжамин Ланкастер, Хуан Пелаез, Умберто Элисондо

Описание: Не успев как следует насладиться прелестями семейной жизни, молодожён, агент ЦРУ и старый друг Джеймса Бонда Феликс, на собственной шкуре познаёт всё коварство и жестокость колумбийской наркомафии. Его красавицу-жену умышленно лишают жизни, а его самого кидают на съедение акулам. Агента 007, безусловно, не устраивает такое отношение к его друзьям и он, нарушив все инструкции и приказы, но не забыв прихватить с собой множество хитроумных примочек из шпионского арсенала, отправляется на поиски кровожадного наркобарона.

Качество: UHD WEB-DL 2160p
Формат: MKV

Видео: HEVC SDR, 14.9 Мбит/с, 3840x2160, 23.976 Кадр/с, 10 Бит - by DEFLATE
Аудио#1: Русский (DTS, 6 ch, 768 Кбит/с) Профессиональный (полное дублирование) | BD EUR
Аудио#2: Русский (DTS, 6 ch, 1510 Кбит/с) | [MVO] Киномания
Аудио#3: Русский ( DTS, 6 ch, 755 Кбит/с ) | [DVO] НТВ
Аудио#4: Русский (DTS, 6 ch, 1510 Кбит/с) | [VO] Ю.Живов
Аудио#5: Русский ( AC3, 2 ch, 192 Кбит/с ) | [MVO] Лазер-Видео
Аудио#6: Русский ( AC3, 2 ch, 192 Кбит/с ) | [VO] Л.Володарский
Аудио#7: Русский ( AC3, 2 ch, 192 Кбит/с ) | [VO] Ю.Сонькин
Аудио#8: Английский (DTS, 6 ch, 1509 Кбит/с)
скриншот  скриншот  скриншот  

скриншот  скриншот  скриншот  

Complete name : 007-Licence.To.Kill.1989.UHD.WEB-DL.SDR.2160p.HEVC.mkv
Format : Matroska
Format version : Version 4
File size : 20.1 GiB
Duration : 2 h 13 min
Overall bit rate : 21.5 Mb/s
Movie name : Licence To Kill (1989) UHD WEB-DL SDR 2160p HEVC -KZ
Encoded date : UTC 2019-08-08 21:10:24
Writing application : mkvmerge v35.0.0 ('All The Love In The World') 64-bit
Writing library : libebml v1.3.9 + libmatroska v1.5.2

Video
ID : 1
Format : HEVC
Format/Info : High Efficiency Video Coding
Format profile : Main [email protected]@Main
Codec ID : V_MPEGH/ISO/HEVC
Duration : 2 h 13 min
Bit rate : 14.9 Mb/s
Width : 3 840 pixels
Height : 1 634 pixels
Original height : 2 160 pixels
Display aspect ratio : 16:9
Frame rate mode : Constant
Frame rate : 23.976 (24000/1001) FPS
Original frame rate : 23.976 (23976/1000) FPS
Color space : YUV
Chroma subsampling : 4:2:0
Bit depth : 10 bits
Bits/(Pixel*Frame) : 0.099
Stream size : 13.9 GiB (69%)
Title : Licence.To.Kill.1989.UHD.WEB-DL.2160p.x265.SDR -DEFLATE
Language : English
Default : Yes
Forced : No
Color range : Limited
Color primaries : BT.709
Transfer characteristics : BT.709
Matrix coefficients : BT.709

Audio #1
ID : 2
Format : DTS
Format/Info : Digital Theater Systems
Codec ID : A_DTS
Duration : 2 h 13 min
Bit rate mode : Constant
Bit rate : 768 kb/s
Channel(s) : 6 channels
Channel layout : C L R Ls Rs LFE
Sampling rate : 48.0 kHz
Frame rate : 93.750 FPS (512 SPF)
Bit depth : 24 bits
Compression mode : Lossy
Stream size : 733 MiB (4%)
Title : Dub [BluRay]
Language : Russian
Default : Yes
Forced : No

Audio #2
ID : 3
Format : DTS
Format/Info : Digital Theater Systems
Codec ID : A_DTS
Duration : 2 h 13 min
Bit rate mode : Constant
Bit rate : 1 510 kb/s
Channel(s) : 6 channels
Channel layout : C L R Ls Rs LFE
Sampling rate : 48.0 kHz
Frame rate : 93.750 FPS (512 SPF)
Bit depth : 24 bits
Compression mode : Lossy
Stream size : 1.41 GiB (7%)
Title : [MVO] Киномания
Language : Russian
Default : No
Forced : No

Audio #3
ID : 4
Format : DTS
Format/Info : Digital Theater Systems
Codec ID : A_DTS
Duration : 2 h 13 min
Bit rate mode : Constant
Bit rate : 755 kb/s
Channel(s) : 6 channels
Channel layout : C L R Ls Rs LFE
Sampling rate : 48.0 kHz
Frame rate : 93.750 FPS (512 SPF)
Bit depth : 24 bits
Compression mode : Lossy
Stream size : 720 MiB (4%)
Title : [DVO] НТВ
Language : Russian
Default : No
Forced : No

Audio #4
ID : 5
Format : DTS
Format/Info : Digital Theater Systems
Codec ID : A_DTS
Duration : 2 h 13 min
Bit rate mode : Constant
Bit rate : 1 510 kb/s
Channel(s) : 6 channels
Channel layout : C L R Ls Rs LFE
Sampling rate : 48.0 kHz
Frame rate : 93.750 FPS (512 SPF)
Bit depth : 24 bits
Compression mode : Lossy
Stream size : 1.41 GiB (7%)
Title : [VO] Ю.Живов
Language : Russian
Default : No
Forced : No

Audio #5
ID : 6
Format : AC-3
Format/Info : Audio Coding 3
Commercial name : Dolby Digital
Codec ID : A_AC3
Duration : 2 h 13 min
Bit rate mode : Constant
Bit rate : 192 kb/s
Channel(s) : 2 channels
Channel layout : L R
Sampling rate : 48.0 kHz
Frame rate : 31.250 FPS (1536 SPF)
Bit depth : 16 bits
Compression mode : Lossy
Stream size : 183 MiB (1%)
Title : [MVO] Лазер-Видео
Language : Russian
Service kind : Complete Main
Default : No
Forced : No

Audio #6
ID : 7
Format : AC-3
Format/Info : Audio Coding 3
Commercial name : Dolby Digital
Codec ID : A_AC3
Duration : 2 h 13 min
Bit rate mode : Constant
Bit rate : 192 kb/s
Channel(s) : 2 channels
Channel layout : L R
Sampling rate : 48.0 kHz
Frame rate : 31.250 FPS (1536 SPF)
Bit depth : 16 bits
Compression mode : Lossy
Stream size : 183 MiB (1%)
Title : [VO] Л.Володарский
Language : Russian
Service kind : Complete Main
Default : No
Forced : No

Audio #7
ID : 8
Format : AC-3
Format/Info : Audio Coding 3
Commercial name : Dolby Digital
Codec ID : A_AC3
Duration : 2 h 13 min
Bit rate mode : Constant
Bit rate : 192 kb/s
Channel(s) : 2 channels
Channel layout : L R
Sampling rate : 48.0 kHz
Frame rate : 31.250 FPS (1536 SPF)
Bit depth : 16 bits
Compression mode : Lossy
Stream size : 183 MiB (1%)
Title : [VO] Ю.Сонькин
Language : Russian
Service kind : Complete Main
Default : No
Forced : No

Audio #8
ID : 9
Format : DTS
Format/Info : Digital Theater Systems
Codec ID : A_DTS
Duration : 2 h 13 min
Bit rate mode : Constant
Bit rate : 1 509 kb/s
Channel(s) : 6 channels
Channel layout : C L R Ls Rs LFE
Sampling rate : 48.0 kHz
Frame rate : 93.750 FPS (512 SPF)
Bit depth : 24 bits
Compression mode : Lossy
Stream size : 1.41 GiB (7%)
Language : English
Default : No
Forced : No

Text #1
ID : 10
Format : UTF-8
Codec ID : S_TEXT/UTF8
Codec ID/Info : UTF-8 Plain Text
Duration : 2 h 9 min
Bit rate : 65 b/s
Count of elements : 924
Stream size : 62.2 KiB (0%)
Title : 1
Language : Russian
Default : No
Forced : No

Text #2
ID : 11
Format : UTF-8
Codec ID : S_TEXT/UTF8
Codec ID/Info : UTF-8 Plain Text
Duration : 2 h 9 min
Bit rate : 52 b/s
Count of elements : 782
Stream size : 50.0 KiB (0%)
Title : 2
Language : Russian
Default : No
Forced : No

Text #3
ID : 12
Format : UTF-8
Codec ID : S_TEXT/UTF8
Codec ID/Info : UTF-8 Plain Text
Duration : 2 h 9 min
Bit rate : 38 b/s
Count of elements : 1050
Stream size : 36.9 KiB (0%)
Title : English 1
Language : English
Default : No
Forced : No

Text #4
ID : 13
Format : UTF-8
Codec ID : S_TEXT/UTF8
Codec ID/Info : UTF-8 Plain Text
Duration : 2 h 12 min
Bit rate : 41 b/s
Count of elements : 1264
Stream size : 40.3 KiB (0%)
Title : English 2
Language : English
Default : No
Forced : No

Text #5
ID : 14
Format : UTF-8
Codec ID : S_TEXT/UTF8
Codec ID/Info : UTF-8 Plain Text
Duration : 2 h 12 min
Bit rate : 43 b/s
Count of elements : 1342
Stream size : 42.2 KiB (0%)
Title : English (SDH)
Language : English
Default : No
Forced : No

Menu
00:00:00.000 : en:Chapter 01
00:08:37.559 : en:Chapter 02
00:11:26.728 : en:Chapter 03
00:15:45.069 : en:Chapter 04
00:18:28.316 : en:Chapter 05
00:27:32.401 : en:Chapter 06
00:31:28.345 : en:Chapter 07
00:32:52.304 : en:Chapter 08
00:36:16.257 : en:Chapter 09
00:40:44.984 : en:Chapter 10
00:43:33.277 : en:Chapter 11
00:46:12.979 : en:Chapter 12
00:47:42.485 : en:Chapter 13
00:50:38.953 : en:Chapter 14
00:54:59.922 : en:Chapter 15
00:57:39.539 : en:Chapter 16
01:02:05.972 : en:Chapter 17
01:11:29.744 : en:Chapter 18
01:14:45.815 : en:Chapter 19
01:20:23.819 : en:Chapter 20
01:25:41.345 : en:Chapter 21
01:30:40.185 : en:Chapter 22
01:32:34.466 : en:Chapter 23
01:38:33.407 : en:Chapter 24
01:42:53.667 : en:Chapter 25
01:49:44.369 : en:Chapter 26
01:54:54.387 : en:Chapter 27
01:56:46.499 : en:Chapter 28
02:01:21.649 : en:Chapter 29
02:05:32.734 : en:Chapter 30
02:08:31.537 : en:Chapter 31
02:10:36.746 : en:Chapter 32

pb.wtf



Скачать Джеймс Бонд 007: Лицензия на убийство через торрент http://img2.lostpic.net/orig_images/9/e/4/9e4cb674a5edba77dfe39417524184e2.png Скачать, смотреть онлайн Джеймс Бонд 007: Лицензия на убийство бесплантно в хорошем качестве Описание: Не успев как следует насладиться прелестями семейной жизни, молодожён, агент ЦРУ и старый друг Джеймса Бонда Феликс, на ... 10 10 4
Торрент: Зарегистрирован [2019-08-08 22:30] · скачан: 18 раз
Статус: √ проверено
Размер: 20.08 GB
Как cкачать? Как скачать Джеймс Бонд 007: Лицензия на убийство через торрент | UTorrent

28-11-2019 20:33  

Отключить вcю реклaмy на сайте

    Дорогой пользователь! Огромная просьба, поблагодарите релизера, оцените раздачу и оставьте свои комментарий, если Вы скачали Джеймс Бонд 007: Лицензия на убийство через торрент бесплатно!
    Комментировать посты могут только пользователи прошедшие не сложную регистрацию
    Показать сообщения:    

    Джеймс Бонд 007: Лицензия на убийство через торрент
    Скачать бесплатно Джеймс Бонд 007: Лицензия на убийство
    Джеймс Бонд 007: Лицензия на убийство скачать торрент
    Джеймс Бонд 007: Лицензия на убийство смотреть онлайн
    Cкачать фильм Джеймс Бонд 007: Лицензия на убийство бесплатно
    Джеймс Бонд 007: Лицензия на убийство скачать торрент в хорошем качестве
    Джеймс Бонд 007: Лицензия на убийство смотреть онлайн бесплатно в хорошем качестве


    Вы не можете начинать темы
    Вы не можете отвечать на сообщения
    Вы не можете редактировать свои сообщения
    Вы не можете удалять свои сообщения
    Вы не можете голосовать в опросах
    Вы не можете прикреплять файлы к сообщениям
    Вы можете скачивать файлы