2 сезон

iTunes

MVO

1

2 сезон

iTunes

iTunes

1 сезон

RePack

30

Новинка

ВАЖНО

ИГРА 18+

pack

RePack

MK11
pack

Легкие деньги

RePack

jed

RePack

fifa19

RePack

RDR2

RePack

NEED FOR SPEED™ PAYBACK

4 сезон

9 сезон

Бесстыжие 9 сезон

Все сериалы

все сериалы на PB.wtf

RePack

FAR CRY 5

Anonymous, добрый вечер, мы не успеваем собрать деньги на оплату серверов за декабрь и январь, помогите нам пожалуйста в это трудное время. В качестве благодарности мы отключим Вам всю рекламу на сайте (укажите свой ник в строку Ваше имя)!

×
  
Magnet ссылка

Эйфория / Euphoria / Сезон: 1 / Серии: 1-8 из 8 (Сэм Левинсон, Пиппа Бьянко, Августин Фриззелл, Дженнифер Моррисон) [2019, драма, WEB-DLRip-AVC] MVO [Novamedia] pb.wtf

Эйфория через торрент pb.wtf

Размер: 3.77 GB | Добавлен: 1 год 5 мес. назад | Торрент скачан:195 раз
Скачать  

09-08-2019 06:20 Эйфория Скачать торрент  

Эйфория / Euphoria Год выпуска: 2019
Страна: США
Жанр: драма
Продолжительность: ~00:53:00
Перевод: Профессиональный (многоголосый закадровый) | Novamedia
Субтитры: русские (форсированные)

Режиссёр: Сэм Левинсон, Пиппа Бьянко, Августин Фриззелл, Дженнифер Моррисон

В ролях: Зендея, Мод Апатоу, Ангус Клауд, Эрик Дэйн, Алекса Деми, Джейкоб Элорди, Барби Феррейра, Ника Уильямс, Сторм Рейд, Хантер Шэфер, Элджи Смит, Сидни Свини

Описание: Главные герои которой постигают жизнь через наркотики, секс, травмы и социальные медиа. В центре истории — 17-летняя Ру Беннетт, вернувшаяся в родной дом после лечения в реабилитационной клинике. Не теряя времени, она опять берется за старые привычки — наркотики и тусовки. Однако появление в городе девушки Джулс становится для Ру знаком надежды.



Качество: WEB-DLRip-AVC / WEB-DL 1080p
Формат: MKV

Видео: MPEG-4 AVC, 768x432 (16:9), 23.976 fps, ~1000 kbps avg, 0.126 bit/pixel
Аудио: 48 kHz, AC3 Dolby Digital, 2/0 (L,R) ch, ~192 kbps avg


Реклама: нет
Complete name               : D:\Раздача\Euphoria (2019) S01\Euphoria (2019) S01E01 WEB-DLRip-AVC_ivanes.mkv
Format                      : Matroska
Format version              : Version 2
File size                   : 458 MiB
Duration                    : 53 min 39 s
Overall bit rate            : 1 193 kb/s
Movie name                  : Euphoria (2019) S01E01 WEB-DLRip-AVC_ivanes
Encoded date                : UTC 2019-07-01 21:47:46
Writing application         : mkvmerge v4.4.0 ('Die Wiederkehr') сборка от Jan  3 2011 21:40:45
Writing library             : libebml v1.0.0 + libmatroska v1.0.0
Cover                       : Yes
Attachments                 : cover.jpg

Video
ID                          : 1
Format                      : AVC
Format/Info                 : Advanced Video Codec
Format profile              : High@L4.1
Format settings, CABAC      : Yes
Format settings, RefFrames  : 10 frames
Codec ID                    : V_MPEG4/ISO/AVC
Duration                    : 53 min 39 s
Bit rate                    : 999 kb/s
Width                       : 768 pixels
Height                      : 432 pixels
Display aspect ratio        : 16:9
Frame rate mode             : Constant
Frame rate                  : 23.976 (24000/1001) FPS
Color space                 : YUV
Chroma subsampling          : 4:2:0
Bit depth                   : 8 bits
Scan type                   : Progressive
Bits/(Pixel*Frame)          : 0.126
Stream size                 : 375 MiB (82%)
Title                       : Rip by ivanes
Writing library             : x264 core 157 r2969 d4099dd
Encoding settings           : cabac=1 / ref=10 / deblock=1:-3:-3 / analyse=0x3:0x113 / me=umh / subme=8 / psy=1 / psy_rd=1.00:0.00 / mixed_ref=1 / me_range=32 / chroma_me=1 / trellis=2 / 8x8dct=1 / cqm=0 / deadzone=21,11 / fast_pskip=0 / chroma_qp_offset=-2 / threads=12 / lookahead_threads=3 / sliced_threads=0 / nr=0 / decimate=1 / interlaced=0 / bluray_compat=0 / constrained_intra=0 / bframes=10 / b_pyramid=2 / b_adapt=2 / b_bias=0 / direct=1 / weightb=1 / open_gop=0 / weightp=2 / keyint=240 / keyint_min=23 / scenecut=40 / intra_refresh=0 / rc_lookahead=60 / rc=2pass / mbtree=0 / bitrate=999 / ratetol=1.0 / qcomp=0.60 / qpmin=0 / qpmax=69 / qpstep=4 / cplxblur=20.0 / qblur=0.5 / vbv_maxrate=50000 / vbv_bufsize=62500 / nal_hrd=none / filler=0 / ip_ratio=1.40 / pb_ratio=1.30 / aq=1:1.00
Default                     : Yes
Forced                      : No
Statistics Tags Issue       : mkvmerge v10.0.0 ('To Drown In You') 64bit 2019-07-01 21:45:59 / mkvmerge v4.4.0 ('Die Wiederkehr') сборка от Jan  3 2011 21:40:45 2019-07-01 21:47:46
FromStats_BitRate           : 998796
FromStats_Duration          : 00:53:39.216000000
FromStats_FrameCount        : 77184
FromStats_StreamSize        : 401917708

Audio
ID                          : 2
Format                      : AC-3
Format/Info                 : Audio Coding 3
Format settings, Endianness : Big
Codec ID                    : A_AC3
Duration                    : 53 min 39 s
Bit rate mode               : Constant
Bit rate                    : 192 kb/s
Channel(s)                  : 2 channels
Channel positions           : Front: L R
Sampling rate               : 48.0 kHz
Frame rate                  : 31.250 FPS (1536 SPF)
Bit depth                   : 16 bits
Compression mode            : Lossy
Stream size                 : 73.7 MiB (16%)
Title                       : Novamedia
Language                    : Russian
Service kind                : Complete Main
Default                     : Yes
Forced                      : No

Text
ID                          : 3
Format                      : UTF-8
Codec ID                    : S_TEXT/UTF8
Codec ID/Info               : UTF-8 Plain Text
Title                       : Forced
Language                    : Russian
Default                     : Yes
Forced                      : No
скриншот  скриншот  скриншот  скриншот  

скриншот  скриншот  скриншот  скриншот  
Внимание! Раздача ведётся путём добавления новых серий; при каждом добавлении создётся новый торрент. Чтобы начать докачку новой серии, пользователям необходимо сделать следующее:
1. остановить скачивание;
2. удалить старый торрент у себя из клиента (старые серии удалять не надо);
3. скачать новый торрент и запустить его у себя в клиенте вместо старого, при этом указать клиенту путь в старую папку куда и должно происходить скачивание новых серий.
Ваш клиент при этом должен произвести хеширование (проверку) старой папки (если не производит сам - помогите ему сделать это), и будет докачивать только те серии которых у вас ещё нет. Старые серии при этом не удаляются, а продолжают раздаваться!
Eсли вы уже удалили старые серии, то предотвратить повторную закачку старых серий можно, отжав галочку в соответствующих местах при запуске нового торрента.
pb.wtf



Скачать Эйфория через торрент https://b.radikal.ru/b18/1908/d0/64c1c43e78bd.png Скачать фильм Эйфория через торрент бесплантно в хорошем качестве Описание: Главные герои которой постигают жизнь через наркотики, секс, травмы и социальные медиа. В центре истории — 17-летняя Ру Беннетт, ... 10 10 6
Торрент: Зарегистрирован [2019-08-09 06:20] · скачан: 195 раз
Статус: √ проверено
Размер: 3.77 GB
Как cкачать? Как скачать Эйфория через торрент | UTorrent

% Раздел Тема Автор DL S | L
Зарубежные сериалы [ 29.83 GB ] Эйфория / Euphoria / Сезон: 1 / Серии: 1-8 из 8 [2019 WEB-DL 1080p] MVO [Novamedia] bober100 Скачать
2 | 0
Зарубежные сериалы [ 15.16 GB ] Эйфория / Euphoria / Сезон: 1 / Серии: 1-8 из 8 [2019 WEB-DL 720p] MVO [TVShows] bober100 Скачать
1 | 0
Зарубежные сериалы [ 6.32 GB ] Эйфория / Euphoria / Сезон: 1 / Серии: 1-8 из 8 [2019 WEB-DLRip] MVO [Novamedia] bober100 Скачать
1 | 0
Зарубежные сериалы [ 7.67 GB ] Эйфория / Euphoria / Сезон: 1 / Серии: 1-8 из 8 [2019 WEB-DLRip] [MVO] killermax2013 Скачать
2 | 0
Зарубежные сериалы [ 29.75 GB ] Эйфория / Euphoria / Сезон: 1 / Серии: 1-8 из 8 [2019 WEB-DL 1080p] [MVO] killermax2013 Скачать
1 | 0

28-11-2019 20:33  

Отключить всю рекламу на сайте

    Дорогой пользователь! Огромная просьба, поблагодарите релизера, оцените раздачу и оставьте свои комментарий, если Вы скачали Эйфория через торрент бесплатно! Внесите свою лепту в развитие PiratBit!
    Комментировать посты могут только пользователи прошедшие не сложную регистрацию
    Показать сообщения:    

    Эйфория через торрент
    Скачать бесплатно Эйфория
    Эйфория скачать торрент
    Эйфория смотреть онлайн
    Cкачать фильм Эйфория бесплатно
    Эйфория скачать торрент в хорошем качестве
    Эйфория смотреть онлайн бесплатно в хорошем качестве


    Вы не можете начинать темы
    Вы не можете отвечать на сообщения
    Вы не можете редактировать свои сообщения
    Вы не можете удалять свои сообщения
    Вы не можете голосовать в опросах
    Вы не можете прикреплять файлы к сообщениям
    Вы можете скачивать файлы