новый адрес пиратбит piratbit
Мега распродажа FORZA HORIZON 4 ULTIMATE+ВСЕ DLC+ОНЛАЙН всего за 499р. 349 руб. (супер цена). Внимание количество ограничено!!!

iTunes

1+1

iTunes

мы

iTunes

1

iTunes

Чернобыль

iTunes

Ральф против интернета

Лицензия

ПШазам

Лицензия

Игра престолов

Лицензия

30
pack

ВАЖНО

!!Акция!!

Alien_RageХит недели

RePack

Resident Evil 21

ИГРА 18+

pack

RePack

Metro:Exodus

!!Акция!!

Alien_Rage

RePack

fifa19

RePack

Assassins Creed: Odyssey

RePack

NEED FOR SPEED™ PAYBACK

3 сезон

9 сезон

Бесстыжие 9 сезон

Все сериалы

все сериалы на PB.wtf

RePack

FAR CRY 5
Ребята, катастрофически не хватает 1900р. для оплаты серверов за Октябрь (всвязи с блокировками трафик упал в 3 раза), 1-2р., выручайте.
  

Мелодия из подвала / Mélodie en sous-sol (Анри Вернёй) [1963, драма, мелодрама, криминал, BDRip 720p by msltel] MVO, AVO pb.wtf

Мелодия из подвала через торрент pb.wtf

Размер: 4.67 GB | Добавлен: 3 мес. 5 д. назад | Торрент скачан:5 раз
Скачать  

09-08-2019 09:01 Мелодия из подвала Скачать торрент  

Название: Мелодия из подвала
Оригинальное название: Mélodie en sous-sol
Год выпуска: 1963
Страна: Франция, Италия
Жанр: драма, мелодрама, криминал
Продолжительность: 02:01:00
Перевод: профессиональный многоголосый, авторский

Режиссер: Анри Вернёй
В ролях: Жан Габен, Ален Делон, Клод Серваль, Вивиан Романс, Анри Вирложё, Жан Карме, Хосе Луис де Вильялонга, Рита Кадиллак, Джимми Дэвис, Доминик Даврэ

О фильме: Матёрый вор Шарль освободился из тюрьмы и задумывает своё последнее крупное дело — ограбление казино на Лазурном берегу. В помощники он берёт двадцатилетнего мошенника Франсиса, только что отсидевшего два года за решёткой. Взяв автомеханика Луи в качестве шофёра, преступники отправляются в Канны. Первым в дело должен вступить Франсис: изображая отдыхающего аристократа, получить доступ за кулисы варьете, которое проходит на сцене казино... Лента основана на романе Джона Триньяна «Большой куш».



Качество: BDRip 720p
Формат: MKV
Видео: MPEG-4 AVC, 4945 Кбит/с, 1280x546
Аудио 1: русский, AC3, 192 kbps, 2 ch, 48 kHz [закадровый многоголосый, Film Prestige]
Аудио 2: русский, AC3, 192 kbps, 2 ch, 48 kHz [авторский, Андрей Гаврилов]
Аудио 3: французский, AC3, 192 kbps, 2 ch, 48 kHz [оригинал]
Субтитры: русские
Главы/чаптеры
Общее
Уникальный идентификатор : 176839895396898988787051963436447846034 (0x850A1FFF644C3E9F9B50A4EC86B44E92)
Полное имя : D:\Video\Мелодия из подвала.1963.BDRip 720p by msltel.mkv
Формат : Matroska
Версия формата : Version 4
Размер файла : 4,67 Гбайт
Продолжительность : 2 ч. 1 м.
Общий поток : 5524 Кбит/сек
Название фильма : Rip by msltel
Дата кодирования : UTC 2019-08-09 07:31:27
Программа кодирования : mkvmerge v8.2.0 ('World of Adventure') 64bit
Библиотека кодирования : libebml v1.3.1 + libmatroska v1.4.2

Видео
Идентификатор : 1
Формат : AVC
Формат/Информация : Advanced Video Codec
Профиль формата : High@L4.1
Настройки формата : CABAC / 9 Ref Frames
Параметр CABAC формата : Да
Параметр RefFrames формата : 9 кадров
Идентификатор кодека : V_MPEG4/ISO/AVC
Продолжительность : 2 ч. 1 м.
Битрейт : 4945 Кбит/сек
Ширина : 1280 пикселей
Высота : 546 пикселей
Соотношение сторон : 2,35:1
Режим частоты кадров : Постоянный
Частота кадров : 24,000 кадра/сек
Цветовое пространство : YUV
Субдискретизация насыщенности : 4:2:0
Битовая глубина : 8 бит
Тип развёртки : Прогрессивная
Бит/(Пиксели*Кадры) : 0.295
Размер потока : 4,18 Гбайт (90%)
Библиотека кодирования : x264 core 157 r2935 545de2f
Настройки программы : cabac=1 / ref=9 / deblock=1:-2:-2 / analyse=0x3:0x113 / me=umh / subme=11 / psy=1 / psy_rd=1.00:0.15 / mixed_ref=1 / me_range=32 / chroma_me=1 / trellis=2 / 8x8dct=1 / cqm=0 / deadzone=21,11 / fast_pskip=0 / chroma_qp_offset=-3 / threads=6 / lookahead_threads=1 / sliced_threads=0 / nr=0 / decimate=1 / interlaced=0 / bluray_compat=0 / constrained_intra=0 / bframes=9 / b_pyramid=2 / b_adapt=2 / b_bias=0 / direct=1 / weightb=1 / open_gop=0 / weightp=2 / keyint=230 / keyint_min=23 / scenecut=40 / intra_refresh=0 / rc_lookahead=40 / rc=crf / mbtree=1 / crf=20.0 / qcomp=0.60 / qpmin=0 / qpmax=69 / qpstep=4 / vbv_maxrate=50000 / vbv_bufsize=62500 / crf_max=0.0 / nal_hrd=none / filler=0 / ip_ratio=1.40 / aq=1:1.00
Язык : French
Default : Да
Forced : Нет

Аудио #1
Идентификатор : 2
Формат : AC-3
Формат/Информация : Audio Coding 3
Коммерческое название : Dolby Digital
Идентификатор кодека : A_AC3
Продолжительность : 2 ч. 1 м.
Вид битрейта : Постоянный
Битрейт : 192 Кбит/сек
Каналы : 2 канала
ChannelLayout : L R
Частота : 48,0 КГц
Частота кадров : 31,250 кадров/сек (1536 SPF)
Битовая глубина : 16 бит
Метод сжатия : С потерями
Размер потока : 166 Мбайт (3%)
Заголовок : MVO Film Prestige
Язык : Russian
ServiceKind/String : Complete Main
Default : Да
Forced : Нет

Аудио #2
Идентификатор : 3
Формат : AC-3
Формат/Информация : Audio Coding 3
Коммерческое название : Dolby Digital
Идентификатор кодека : A_AC3
Продолжительность : 2 ч. 1 м.
Вид битрейта : Постоянный
Битрейт : 192 Кбит/сек
Каналы : 2 канала
ChannelLayout : L R
Частота : 48,0 КГц
Частота кадров : 31,250 кадров/сек (1536 SPF)
Битовая глубина : 16 бит
Метод сжатия : С потерями
Размер потока : 166 Мбайт (3%)
Заголовок : Андрей Гаврилов
Язык : Russian
ServiceKind/String : Complete Main
Default : Нет
Forced : Нет

Аудио #3
Идентификатор : 4
Формат : AC-3
Формат/Информация : Audio Coding 3
Коммерческое название : Dolby Digital
Идентификатор кодека : A_AC3
Продолжительность : 2 ч. 1 м.
Вид битрейта : Постоянный
Битрейт : 192 Кбит/сек
Каналы : 2 канала
ChannelLayout : L R
Частота : 48,0 КГц
Частота кадров : 31,250 кадров/сек (1536 SPF)
Битовая глубина : 16 бит
Метод сжатия : С потерями
Размер потока : 166 Мбайт (3%)
Заголовок : original
Язык : French
ServiceKind/String : Complete Main
Default : Нет
Forced : Нет

Текст
Идентификатор : 5
Формат : UTF-8
Идентификатор кодека : S_TEXT/UTF8
Идентификатор кодека/Информация : UTF-8 Plain Text
Продолжительность : 2 ч. 0 м.
Битрейт : 91 бит/сек
ElementCount : 1387
Размер потока : 80,5 Кбайт (0%)
Заголовок : русские
Язык : Russian
Default : Нет
Forced : Нет

Меню
00:00:00.000 : :Chapter 1
00:11:09.582 : :Chapter 2
00:22:59.415 : :Chapter 3
00:30:06.000 : :Chapter 4
00:38:45.000 : :Chapter 5
00:50:10.041 : :Chapter 6
00:59:49.625 : :Chapter 7
01:10:19.625 : :Chapter 8
01:20:38.291 : :Chapter 9
01:30:49.707 : :Chapter 10
01:39:54.875 : :Chapter 11
01:49:29.957 : :Chapter 12
02:01:00.125 : :Chapter 13
pb.wtf



Скачать Мелодия из подвала через торрент https://c.radikal.ru/c30/1908/2f/b6e3987bfc48.jpg Скачать фильм Мелодия из подвала через торрент бесплантно в хорошем качестве О фильме: Матёрый вор Шарль освободился из тюрьмы и задумывает своё последнее крупное дело — ограбление казино на Лазурном берегу. В ... 10 10 3
Info! Золотая раздача, скачанное не засчитывается.
Торрент: Зарегистрирован [2019-08-09 09:01] · скачан: 5 раз
Статус: √ проверено
Размер: 4.67 GB
Как cкачать? Как скачать Мелодия из подвала через торрент | qTorrent

% Раздел Тема Автор DL S | L
Классика зарубежного кино [ 12.25 GB ] Мелодия из подвала / Mélodie en sous-sol [1963 BDRip 1080p by msltel] MVO AVO msltel Скачать
1 | 0


>> Регистрируемся здесь <<






Отзывы и комментарии о схеме читаем и пишем здесь: ---> Отзывы и комментарии о схеме

Новые благодарочки в телеграм довольных пользователей:
скриншот   скриншот   скриншот   скриншот   скриншот

09-08-2019 09:08 Мелодия из подвала Скачать торрент  

Топик был перенесен из форума Фильмы [HD 720p, 1080p] (Хороший звук DUB, MVO) в форум Классика зарубежного кино


bober100pb.wtf



    Дорогой пользователь! Огромная просьба, поблагодарите релизера, оцените раздачу и оставьте свои комментарий, если Вы скачали Мелодия из подвала через торрент бесплатно! Внесите свою лепту в развитие PiratBit!
    Комментировать посты могут только пользователи прошедшие не сложную регистрацию
    Показать сообщения:    

    Мелодия из подвала через торрент
    Скачать бесплатно Мелодия из подвала
    Мелодия из подвала скачать торрент
    Мелодия из подвала смотреть онлайн
    Cкачать фильм Мелодия из подвала бесплатно
    Мелодия из подвала скачать торрент в хорошем качестве
    Мелодия из подвала смотреть онлайн бесплатно в хорошем качестве


    Вы не можете начинать темы
    Вы не можете отвечать на сообщения
    Вы не можете редактировать свои сообщения
    Вы не можете удалять свои сообщения
    Вы не можете голосовать в опросах
    Вы не можете прикреплять файлы к сообщениям
    Вы можете скачивать файлы