Ссылка на приватное зеркало нашего сайта всего за 1$. Внимание количество ограничено!!!

2 сезон

iTunes

1 сезон

1

2 сезон

2 сезон

iTunes

1 сезон

RePack

30

Ultimate

ВАЖНО

ИГРА 18+

pack

RePack

MK11
pack

Забери бонус

RePack

jed

!!Акция!!

Alien_Rage

RePack

fifa19

RePack

Assassins Creed: Odyssey

RePack

NEED FOR SPEED™ PAYBACK

4 сезон

9 сезон

Бесстыжие 9 сезон

Все сериалы

все сериалы на PB.wtf

RePack

FAR CRY 5
  

В смертельной опасности / On Deadly Ground (Стивен Сигал) [1994, Боевик, триллер, приключения, WEB-DL 1080p] 2xDUB+3xAVO+3xMVO (rus, ukr) pb.wtf

В смертельной опасности через торрент pb.wtf

Раздают: 1 [ 0 KB/s ]
Размер: 11.05 GB | Добавлен: 1 год 3 мес. назад | Торрент скачан:29 раз
Скачать  

09-08-2019 14:32 В смертельной опасности Скачать торрент  

В смертельной опасности / On Deadly Ground
Год выпуска: 1994
Страна: США
Жанр: Боевик, триллер, приключения
Продолжительность: 01:41:49
Перевод: Профессиональный дублированный, Многоголосый, Авторский
Субтитры: Русские (full), английские (full, SDH)

Режиссер: Стивен Сигал

rating

В ролях: Стивен Сигал, Майкл Кейн, Джоан Чен, Джон К. МакГинли, Р. Ли Эрми, Шейри Шэттак, Билли Боб Торнтон, Ричард Хэмилтон, Чиф Ирвин Бринк, Апангулук Чарли Кайрайуак, Элси Пистолхэд, Майк Старр, Свен-Оле Торсен, Джон Труделл, Ирвин Кершнер, Тодд Бидл

Описание: Форрест Тафт — это человек, который всегда выбирает только одну сторону. Тафт — специалист по борьбе с пожарами нефтяных скважин, но ему приходится вступать в еще более горячую битву, когда он сталкивается с Майклом Дженнингсом — хозяином нефтяной компании, на одной из буровых которой произошла авария, и нефть выливается в океан. Но нажива для таких людей превыше всего. И тогда Тафт дает им понять: если они причинят вред земле, которую он любит, они — в смертельной опасности.

Качество: WEB-DL 1080p
Формат: MKV

Видео: MPEG-4 AVC, 12.6 Mбит/с, 1920x1080, 23.976 кадр/с
Аудио#1: Русский (АС3, 6 ch, 384 Кбит/с, 48.0 KHz) Профессиональный (дублированный) Мост-Видео
Аудио#2: Русский (АС3, 2 ch, 192 Кбит/с, 48.0 KHz) Профессиональный (дублированный) Варус-Видео
Аудио#3: Русский (АС3, 6 ch, 384 Кбит/с, 48.0 KHz) Авторский (одноголосый, закадровый) Андрей Гаврилов
Аудио#4: Русский (АС3, 6 ch, 384 Кбит/с, 48.0 KHz) Авторский (одноголосый, закадровый) Юрий Живов
Аудио#5: Русский (АС3, 2 ch, 192 Кбит/с, 48.0 KHz) Авторский (одноголосый, закадровый) Василий Горчаков
Аудио#6: Русский (АС3, 2 ch, 192 Кбит/с, 48.0 KHz) Профессиональный (многоголосый, закадровый) ОРТ
Аудио#7: Русский (АС3, 2 ch, 192 Кбит/с, 48.0 KHz) Профессиональный (многоголосый, закадровый) НТВ
Аудио#8: Русский (АС3, 2 ch, 192 Кбит/с, 48.0 KHz) Профессиональный (многоголосый, закадровый) TK. Россия
Аудио#9: Украинский (АС3, 2 ch, 192 Кбит/с, 48.0 KHz) Профессиональный (многоголосый, закадровый) Новый канал
Аудио#10: Английский (E-АС3, 6 ch, 640 Кбит/с, 48.0 KHz)
скриншот  скриншот  скриншот  скриншот  скриншот  

скриншот  скриншот  скриншот  скриншот  скриншот  

Источник: On.Deadly.Ground.1994.1080p.AMZN.WEB-DL.DDP5.1.x264-QOQ
General
Unique ID : 212709817904934867391421749526181891635 (0xA0066BB807B6FF58B42993102BDECE33)
Complete name : On.Deadly.Ground.1994.AMZN.WEB-DL.1080p.mkv
Format : Matroska
Format version : Version 4
File size : 11.0 GiB
Duration : 1 h 41 min
Overall bit rate mode : Variable
Overall bit rate : 15.5 Mb/s
Encoded date : UTC 2019-08-09 10:34:55
Writing application : mkvmerge v7.1.0 ('Good Love') 64bit built on Jul 27 2014 13:06:55
Writing library : libebml v1.3.0 + libmatroska v1.4.1

Video
ID : 1
Format : AVC
Format/Info : Advanced Video Codec
Format profile : High@L4
Format settings : CABAC / 4 Ref Frames
Format settings, CABAC : Yes
Format settings, Reference fra : 4 frames
Codec ID : V_MPEG4/ISO/AVC
Duration : 1 h 41 min
Bit rate mode : Variable
Bit rate : 12.6 Mb/s
Maximum bit rate : 15.0 Mb/s
Width : 1 920 pixels
Height : 1 080 pixels
Display aspect ratio : 16:9
Frame rate mode : Constant
Frame rate : 23.976 (24000/1001) FPS
Color space : YUV
Chroma subsampling : 4:2:0
Bit depth : 8 bits
Scan type : Progressive
Bits/(Pixel*Frame) : 0.253
Stream size : 8.95 GiB (81%)
Language : English
Default : Yes
Forced : No
Color range : Limited
Color primaries : BT.709
Transfer characteristics : BT.709
Matrix coefficients : BT.709

Audio #1
ID : 2
Format : AC-3
Format/Info : Audio Coding 3
Commercial name : Dolby Digital
Codec ID : A_AC3
Duration : 1 h 41 min
Bit rate mode : Constant
Bit rate : 384 kb/s
Channel(s) : 6 channels
Channel layout : L R C LFE Ls Rs
Sampling rate : 48.0 kHz
Frame rate : 31.250 FPS (1536 SPF)
Bit depth : 16 bits
Compression mode : Lossy
Stream size : 280 MiB (2%)
Title : Dub | Мост-Видео
Language : Russian
Service kind : Complete Main
Default : Yes
Forced : No

Audio #2
ID : 3
Format : AC-3
Format/Info : Audio Coding 3
Commercial name : Dolby Digital
Codec ID : A_AC3
Duration : 1 h 41 min
Bit rate mode : Constant
Bit rate : 192 kb/s
Channel(s) : 2 channels
Channel layout : L R
Sampling rate : 48.0 kHz
Frame rate : 31.250 FPS (1536 SPF)
Bit depth : 16 bits
Compression mode : Lossy
Stream size : 140 MiB (1%)
Title : Dub | Варус-Видео
Language : Russian
Service kind : Complete Main
Default : No
Forced : No

Audio #3
ID : 4
Format : AC-3
Format/Info : Audio Coding 3
Commercial name : Dolby Digital
Codec ID : A_AC3
Duration : 1 h 41 min
Bit rate mode : Constant
Bit rate : 384 kb/s
Channel(s) : 6 channels
Channel layout : L R C LFE Ls Rs
Sampling rate : 48.0 kHz
Frame rate : 31.250 FPS (1536 SPF)
Bit depth : 16 bits
Compression mode : Lossy
Stream size : 280 MiB (2%)
Title : AVO | Андрей Гаврилов
Language : Russian
Service kind : Complete Main
Default : No
Forced : No

Audio #4
ID : 5
Format : AC-3
Format/Info : Audio Coding 3
Commercial name : Dolby Digital
Codec ID : A_AC3
Duration : 1 h 41 min
Bit rate mode : Constant
Bit rate : 384 kb/s
Channel(s) : 6 channels
Channel layout : L R C LFE Ls Rs
Sampling rate : 48.0 kHz
Frame rate : 31.250 FPS (1536 SPF)
Bit depth : 16 bits
Compression mode : Lossy
Stream size : 280 MiB (2%)
Title : AVO | Юрий Живов
Language : Russian
Service kind : Complete Main
Default : No
Forced : No

Audio #5
ID : 6
Format : AC-3
Format/Info : Audio Coding 3
Commercial name : Dolby Digital
Codec ID : A_AC3
Duration : 1 h 41 min
Bit rate mode : Constant
Bit rate : 192 kb/s
Channel(s) : 2 channels
Channel layout : L R
Sampling rate : 48.0 kHz
Frame rate : 31.250 FPS (1536 SPF)
Bit depth : 16 bits
Compression mode : Lossy
Stream size : 140 MiB (1%)
Title : AVO | Василий Горчаков
Language : Russian
Service kind : Complete Main
Default : No
Forced : No

Audio #6
ID : 7
Format : AC-3
Format/Info : Audio Coding 3
Commercial name : Dolby Digital
Codec ID : A_AC3
Duration : 1 h 41 min
Bit rate mode : Constant
Bit rate : 192 kb/s
Channel(s) : 2 channels
Channel layout : L R
Sampling rate : 48.0 kHz
Frame rate : 31.250 FPS (1536 SPF)
Bit depth : 16 bits
Compression mode : Lossy
Stream size : 140 MiB (1%)
Title : MVO | ОРТ
Language : Russian
Service kind : Complete Main
Default : No
Forced : No

Audio #7
ID : 8
Format : AC-3
Format/Info : Audio Coding 3
Commercial name : Dolby Digital
Codec ID : A_AC3
Duration : 1 h 41 min
Bit rate mode : Constant
Bit rate : 192 kb/s
Channel(s) : 2 channels
Channel layout : L R
Sampling rate : 48.0 kHz
Frame rate : 31.250 FPS (1536 SPF)
Bit depth : 16 bits
Compression mode : Lossy
Stream size : 140 MiB (1%)
Title : MVO | НТВ
Language : Russian
Service kind : Complete Main
Default : No
Forced : No

Audio #8
ID : 9
Format : AC-3
Format/Info : Audio Coding 3
Commercial name : Dolby Digital
Codec ID : A_AC3
Duration : 1 h 41 min
Bit rate mode : Constant
Bit rate : 192 kb/s
Channel(s) : 2 channels
Channel layout : L R
Sampling rate : 48.0 kHz
Frame rate : 31.250 FPS (1536 SPF)
Bit depth : 16 bits
Compression mode : Lossy
Stream size : 140 MiB (1%)
Title : MVO | TK. Россия
Language : Russian
Service kind : Complete Main
Default : No
Forced : No

Audio #9
ID : 10
Format : AC-3
Format/Info : Audio Coding 3
Commercial name : Dolby Digital
Codec ID : A_AC3
Duration : 1 h 41 min
Bit rate mode : Constant
Bit rate : 192 kb/s
Channel(s) : 2 channels
Channel layout : L R
Sampling rate : 48.0 kHz
Frame rate : 31.250 FPS (1536 SPF)
Bit depth : 16 bits
Compression mode : Lossy
Stream size : 140 MiB (1%)
Title : MVO | Новый канал
Language : Ukrainian
Service kind : Complete Main
Default : No
Forced : No

Audio #10
ID : 11
Format : E-AC-3
Format/Info : Enhanced AC-3
Commercial name : Dolby Digital Plus
Codec ID : A_EAC3
Duration : 1 h 41 min
Bit rate mode : Constant
Bit rate : 640 kb/s
Channel(s) : 6 channels
Channel layout : L R C LFE Ls Rs
Sampling rate : 48.0 kHz
Frame rate : 31.250 FPS (1536 SPF)
Compression mode : Lossy
Stream size : 466 MiB (4%)
Language : English
Service kind : Complete Main
Default : No
Forced : No

Text #1
ID : 12
Format : UTF-8
Codec ID : S_TEXT/UTF8
Codec ID/Info : UTF-8 Plain Text
Duration : 1 h 37 min
Bit rate : 69 b/s
Count of elements : 1008
Stream size : 49.3 KiB (0%)
Language : Russian
Default : No
Forced : No

Text #2
ID : 13
Format : UTF-8
Codec ID : S_TEXT/UTF8
Codec ID/Info : UTF-8 Plain Text
Duration : 1 h 35 min
Bit rate : 49 b/s
Count of elements : 984
Stream size : 34.8 KiB (0%)
Language : English
Default : No
Forced : No

Text #3
ID : 14
Format : UTF-8
Codec ID : S_TEXT/UTF8
Codec ID/Info : UTF-8 Plain Text
Duration : 1 h 38 min
Bit rate : 61 b/s
Count of elements : 1474
Stream size : 44.4 KiB (0%)
Title : SDH
Language : English
Default : No
Forced : No

Menu
00:00:00.000 : en:Wilderness Credits
00:02:21.000 : en:Blazing Disaster
00:07:18.000 : en:Finding Fault
00:08:19.000 : en:Abby's Rough Crowd
00:13:34.000 : en:Playing W/cupcake
00:17:24.000 : en:Aegis Oil Cares
00:19:35.000 : en:Rid Of Problems
00:21:52.000 : en:Unauthorized Access
00:24:41.000 : en:Last Of H. Palmer
00:29:08.000 : en:Oil Spill
00:31:55.000 : en:A Trap For Forrest
00:34:19.000 : en:Rescued
00:36:16.000 : en:Framed
00:37:23.000 : en:What Bear Would Say
00:42:34.000 : en:The Spirit Within
00:46:20.000 : en:The Chosen One
00:48:58.000 : en:Pulls The Trigger
00:51:20.000 : en:To Spirit Warrior
00:54:23.000 : en:Targets At Hugh's
00:58:13.000 : en:Outside Help
01:00:15.000 : en:What Really Matters
01:03:29.000 : en:Bait For Hunters
01:08:14.000 : en:Horseback Pursuit
01:12:51.000 : en:Inside Aegis One
01:17:12.000 : en:Reach And Touch
01:19:12.000 : en:A Professional
01:21:15.000 : en:Abandon Ship
01:23:02.000 : en:Target: The Rig
01:25:35.000 : en:His Aim Backfires
01:26:24.000 : en:Hand-to-hand Havoc
01:28:24.000 : en:Jennings Takes Fall
01:30:12.000 : en:Inferno
01:32:25.000 : en:To Do What's Right
01:36:42.000 : en:End Credits

pb.wtf



Скачать В смертельной опасности через торрент http://img14.lostpic.net/2019/05/26/c2391a1c80f0bcd41ba60b9b994fc6ac.png Скачать фильм В смертельной опасности через торрент бесплантно в хорошем качестве Описание: Форрест Тафт — это человек, который всегда выбирает только одну сторону. Тафт — специалист по борьбе с пожарами нефтяных скважин, ... 10 10 5
Торрент: Зарегистрирован [2019-08-09 14:32] · скачан: 29 раз
Статус: √ проверено
Размер: 11.05 GB
Как cкачать? Как скачать В смертельной опасности через торрент | qTorrent

% Раздел Тема Автор DL S | L
Фильмы (HD 720p, 1080p) (48-60 fps) [ 3.44 GB ] В смертельной опасности / On Deadly Ground [1994 WEB-DLRip 720p / 60 FPS ] от R.G. HD-Films slaventi-69 Скачать
2 | 0

28-11-2019 20:33  

Отключить всю рекламу на сайте

    Дорогой пользователь! Огромная просьба, поблагодарите релизера, оцените раздачу и оставьте свои комментарий, если Вы скачали В смертельной опасности через торрент бесплатно! Внесите свою лепту в развитие PiratBit!
    Комментировать посты могут только пользователи прошедшие не сложную регистрацию
    Показать сообщения:    

    В смертельной опасности через торрент
    Скачать бесплатно В смертельной опасности
    В смертельной опасности скачать торрент
    В смертельной опасности смотреть онлайн
    Cкачать фильм В смертельной опасности бесплатно
    В смертельной опасности скачать торрент в хорошем качестве
    В смертельной опасности смотреть онлайн бесплатно в хорошем качестве


    Вы не можете начинать темы
    Вы не можете отвечать на сообщения
    Вы не можете редактировать свои сообщения
    Вы не можете удалять свои сообщения
    Вы не можете голосовать в опросах
    Вы не можете прикреплять файлы к сообщениям
    Вы можете скачивать файлы