2 сезон

iTunes

MVO

1

2 сезон

iTunes

iTunes

1 сезон

RePack

30

Новинка

ВАЖНО

ИГРА 18+

pack

RePack

MK11
pack

Легкие деньги

RePack

jed

RePack

fifa19

RePack

RDR2

RePack

NEED FOR SPEED™ PAYBACK

4 сезон

9 сезон

Бесстыжие 9 сезон

Все сериалы

все сериалы на PB.wtf

RePack

FAR CRY 5

Anonymous, добрый вечер, мы не успеваем собрать деньги на оплату серверов за декабрь и январь, помогите нам пожалуйста в это трудное время. В качестве благодарности мы отключим Вам всю рекламу на сайте (укажите свой ник в строку Ваше имя)!

×
  
Magnet ссылка

Блеск / GLOW / Сезон: 3 / Серии: 1-10 из 10 (Кейт Дэннис, Тодд Фьельстед, Тристрам Шапиро) [2019, Драма, комедия, спорт, WEBRip] MVO [Octopus] pb.wtf

Блеск через торрент pb.wtf

Размер: 4.78 GB | Добавлен: 1 год 5 мес. назад | Торрент скачан:4 раза
Скачать  

09-08-2019 15:38 Блеск Скачать торрент  

Блеск / GLOW
Год выпуска: 2019
Страна: США, NetFlix
Жанр: Драма, комедия, спорт
Продолжительность: ~ 00:30:00 серия
Перевод: Любительский (многоголосый) | Octopus
Субтитры: отсутствуют

Режиссер: Кейт Дэннис, Тодд Фьельстед, Тристрам Шапиро

rating

В ролях: Элисон Бри, Бетти Джилпин, Сидель Грэйнджер, Бритни Янг, Марк Мэрон, Бритт Барон, Ким Гейтвуд, Ребекка Джонсон, Сунита Мани, Кейт Нэш

Описание: Рут Уайлдер - молодая особа, которая уже давным давно мечтает о том, чтобы засветиться в Голливуде и сняться в каком-нибудь крутом фильме. Правда пока что ей не удается найти подходящую работу, потому что спроса на главную героиню нет. Однако вскоре ей приходит интересное предложение от проекта под названием ГЛОУ, который представляет из себя некое реалити-шоу, которое предлагает всем неудавшимся актрисам стать наконец-то звездами и доказать всем, что они способны на большее. Девушки соревнуются друг с другом в Лос-Анджелесе, где показывают все свои таланты, однако победить сможет лишь одна из них - сильнейшая!

Качество: WEBRip
Формат: AVI

Видео: XviD, ~ 1500 Кбит/с, 720x360
Аудио: Русский, (AC3, 2 ch, 384 Кбит/с)
скриншот  скриншот  скриншот  

Общее
Полное имя : D:\Glow.S03.400p.Octopus\Glow.S03E01.400p.Octopus.avi
Формат : AVI
Формат/Информация : Audio Video Interleave
Размер файла : 454 Мбайт
Продолжительность : 34 м. 47 с.
Общий поток : 1825 Кбит/сек
Программа кодирования : VirtualDubMod 1.5.10.3 | www.virtualdub-fr.org || (build 2550/release)
Библиотека кодирования : VirtualDubMod build 2550/release

Видео
Идентификатор : 0
Формат : MPEG-4 Visual
Профиль формата : Advanced Simple@L5
Параметр BVOP формата : 2
Параметр QPel формата : Нет
Параметр GMC формата : Без точки перехода
Параметр матрицы формата : Выборочная
Идентификатор кодека : XVID
Идентификатор кодека/Подсказка : XviD
Продолжительность : 34 м. 47 с.
Битрейт : 1360 Кбит/сек
Ширина : 720 пикселей
Высота : 360 пикселей
Соотношение сторон : 2,000
Частота кадров : 23,976 (23976/1000) кадра/сек
Цветовое пространство : YUV
Субдискретизация насыщенности : 4:2:0
Битовая глубина : 8 бит
Тип развёртки : Прогрессивная
Метод сжатия : С потерями
Бит/(Пиксели*Кадры) : 0.219
Размер потока : 338 Мбайт (75%)
Библиотека кодирования : XviD 1.2.1 (UTC 2008-12-04)

Аудио
Идентификатор : 1
Формат : AC-3
Формат/Информация : Audio Coding 3
Расширение режима : CM (complete main)
Параметр Endianness формата : Big
Идентификатор кодека : 2000
Продолжительность : 34 м. 47 с.
Вид битрейта : Постоянный
Битрейт : 384 Кбит/сек
Каналы : 2 канала
Расположение каналов : Front: L R
Частота : 48,0 КГц
Частота кадров : 31,250 кадров/сек (1536 spf)
Метод сжатия : С потерями
Размер потока : 95,6 Мбайт (21%)
Выравнивание : Разделение по промежуткам

Когда раздача ведётся путём добавления новых серий, при каждом добавлении создётся новый торрент. Чтобы начать докачку новой серии, пользователям необходимо сделать следующее:
(1) остановить скачивание,
(2) удалить старый торрент у себя из клиента (старые серии удалять не надо),
(3) скачать новый торрент и запустить его у себя в клиенте вместо старого, при этом указать клиенту путь в старую папку, куда и должно происходить скачивание новых серий.
Ваш клиент при этом должен произвести хеширование (проверку) старой папки (если не производит сам - помогите ему сделать это), и будет докачивать только те серии, которых у вас ещё нет. Старые серии при этом не удаляются, а продолжают раздаваться!
Eсли вы уже удалили старые серии, то предотвратить повторную закачку старых серий можно, отжав галочку в соответсвующих местах при запуске нового торрента. По возможности, желательно не удалять старые серии как можно дольше, чтобы релизёр не столько продолжал раздавать старые серии, а смог сконцентрироваться на новых.
pb.wtf



Скачать Блеск через торрент https://c.radikal.ru/c04/1908/63/65c52d6cee04.jpg Скачать фильм Блеск через торрент бесплантно в хорошем качестве Описание: Рут Уайлдер - молодая особа, которая уже давным давно мечтает о том, чтобы засветиться в Голливуде и сняться в каком-нибудь ... 10 10 3
Торрент: Зарегистрирован [2019-08-11 09:12] · скачан: 4 раз
Статус: T временная
Размер: 4.78 GB
Как cкачать? Как скачать Блеск через торрент | UTorrent

% Раздел Тема Автор DL S | L
T Зарубежные сериалы [ 18.6 GB ] Блеск / GLOW / Сезон: 3 / Серии: 1-10 из 10 [2019 WEBRip 1080p] MVO [Octopus] bober100 Скачать
1 | 0
T Зарубежные сериалы [ 11.98 GB ] Блеск / GLOW / Сезон: 3 / Серии: 1-10 из 10 [2019 WEBRip 720p] MVO [Octopus] bober100 Скачать
1 | 0

28-11-2019 20:33  

Отключить всю рекламу на сайте

    Дорогой пользователь! Огромная просьба, поблагодарите релизера, оцените раздачу и оставьте свои комментарий, если Вы скачали Блеск через торрент бесплатно! Внесите свою лепту в развитие PiratBit!
    Комментировать посты могут только пользователи прошедшие не сложную регистрацию
    Показать сообщения:    

    Блеск через торрент
    Скачать бесплатно Блеск
    Блеск скачать торрент
    Блеск смотреть онлайн
    Cкачать фильм Блеск бесплатно
    Блеск скачать торрент в хорошем качестве
    Блеск смотреть онлайн бесплатно в хорошем качестве


    Вы не можете начинать темы
    Вы не можете отвечать на сообщения
    Вы не можете редактировать свои сообщения
    Вы не можете удалять свои сообщения
    Вы не можете голосовать в опросах
    Вы не можете прикреплять файлы к сообщениям
    Вы можете скачивать файлы