новый адрес
Мега распродажа FORZA HORIZON 4 ULTIMATE+ВСЕ DLC+ОНЛАЙН всего за 499р. 349 руб. (супер цена). Внимание количество ограничено!!!

iTunes

1+1

iTunes

мы

iTunes

1

iTunes

Чернобыль

iTunes

Ральф против интернета

Лицензия

ПШазам

Лицензия

Оно 2

Лицензия

30
pack

ВАЖНО

!!Акция!!

Alien_RageХит недели

RePack

Resident Evil 21

ИГРА 18+

pack

RePack

jed

!!Акция!!

Alien_Rage

RePack

fifa19

RePack

Assassins Creed: Odyssey

RePack

NEED FOR SPEED™ PAYBACK

3 сезон

9 сезон

Бесстыжие 9 сезон

Все сериалы

все сериалы на PB.wtf

RePack

FAR CRY 5
Ребята, катастрофически не хватает 1900р. для оплаты серверов за Октябрь (всвязи с блокировками трафик упал в 3 раза), 1-2р., выручайте.
  

Самый медленный поезд (Валерий Усков, Владимир Краснопольский) [1963, СССР, военный, SATRip от AVP Studio] pb.wtf

Самый медленный поезд через торрент pb.wtf

Раздают: 18 [ 1 MB/s ] Качают: 5 [ 1007 KB/s ]
Размер: 1.09 GB | Добавлен: 3 мес. 11 д. назад | Торрент скачан:7 раз
Скачать  

10-08-2019 08:37 Самый медленный поезд Скачать торрент  

Самый медленный поезд
Страна: СССР
Производство: Свердловская киностудия

Жанр: военный
Год выпуска: 1963
Продолжительность: 01:15:29

Перевод: Не требуется
Cубтитры: нет
Оригинальная аудиодорожка: русский

Режиссер: Валерий Усков, Владимир Краснопольский

В ролях:
Павел Кадочников, Нонна Терентьева, Зинаида Кириенко, Марина Бурова, Анатолий Барчук, Алла Суркова, Валентина Владимирова, Людмила Шагалова, Александр Матковский, Иван Рыжов, Юрий Горобец, Аркадий Щербаков...
Об актёрах подробней

Описание:
Весна 1943 года. Из освобожденного города отправляется воинский эшелон. К нему подцепляют специальный вагон с дивизионной типографией и фронтовым корреспондентом капитаном Сергеевым. Он предполагал, что поедет один, но постепенно вагон стал заполняться непрошеными попутчиками. Появился раненный солдат с девочкой, потом беременная женщина, два партработника, актриса, потом и другие. Корреспонденту приходится с этим мириться, потому что он не может выгонять людей, каждый из которых по-своему пострадал от войны.

Исходник: DVB
Качество видео: SATRip
Формат видео: AVI

Видео: 704x480 (3:2), 29,970 кадров/сек, XviD ~ 1863 kbps avg, 0.184 bit/pixel
Аудио: 48 kHz, Dolby Digital AC3 2.0, 192 kbps

Раздача от:
Общее
Полное имя : Samyy.medlennyy.poezd.1963.SATRip_[New-team]_by_AVP_Studio.avi
Формат : AVI
Формат/Информация : Audio Video Interleave
Размер файла : 1,09 Гбайт
Продолжительность : 1 ч. 15 м.
Общий поток : 2067 Кбит/сек
Программа кодирования : VirtualDubMod 1.5.10.3 | www.virtualdub-fr.org || (build 2550/release)
Библиотека кодирования : VirtualDubMod build 2550/release

Видео
Идентификатор : 0
Формат : MPEG-4 Visual
Профиль формата : Advanced Simple@L5
Настройки формата : BVOP1 / Custom Matrix
Параметр BVOP формата : 1
Параметр QPel формата : Нет
Параметр GMC формата : Без точки перехода
Параметр матрицы формата : Выборочная
Идентификатор кодека : XVID
Идентификатор кодека/Подсказка : XviD
Продолжительность : 1 ч. 15 м.
Битрейт : 1863 Кбит/сек
Ширина : 704 пикселя
Высота : 480 пикселей
Соотношение сторон : 3:2
Частота кадров : 29,970 (30000/1001) кадров/сек
Стандарт вещания : NTSC
Цветовое пространство : YUV
Субдискретизация насыщенности : 4:2:0
Битовая глубина : 8 бит
Тип развёртки : Прогрессивная
Метод сжатия : С потерями
Бит/(Пиксели*Кадры) : 0.184
Размер потока : 1006 Мбайт (90%)
Библиотека кодирования : XviD 73

Аудио
Идентификатор : 1
Формат : AC-3
Формат/Информация : Audio Coding 3
Коммерческое название : Dolby Digital
Идентификатор кодека : 2000
Продолжительность : 1 ч. 15 м.
Вид битрейта : Постоянный
Битрейт : 192 Кбит/сек
Каналы : 2 канала
ChannelLayout : L R
Частота : 48,0 КГц
Частота кадров : 31,250 кадров/сек (1536 SPF)
Битовая глубина : 16 бит
Метод сжатия : С потерями
Размер потока : 104 Мбайт (9%)
Выравнивание : Разделение по промежуткам
Продолжительность промежутка : 33 мс. (1,00 видеокадр)
Время предзагрузки промежутка : 500 мс
pb.wtf



Скачать Самый медленный поезд через торрент http://picplus.ru/img/1908/08/0a643969.png Скачать фильм Самый медленный поезд через торрент бесплантно в хорошем качестве Описание:Весна 1943 года. Из освобожденного города отправляется воинский эшелон. К нему подцепляют специальный вагон с дивизионной ... 5 10 1
Торрент: Зарегистрирован [2019-08-10 08:37] · скачан: 7 раз
Статус: √ проверено
Размер: 1.09 GB
Как cкачать? Как скачать Самый медленный поезд через торрент | qTorrent

% Раздел Тема Автор DL S | L
Кино СССР [ 1.09 GB ] Самый медленный поезд [1963 СССР военный SATRip-AVC от AVP Studio] AVP Studio Скачать
7 | 0


>> Регистрируемся здесь <<






Отзывы и комментарии о схеме читаем и пишем здесь: ---> Отзывы и комментарии о схеме

Новые благодарочки в телеграм довольных пользователей:
скриншот   скриншот   скриншот   скриншот   скриншот
    Дорогой пользователь! Огромная просьба, поблагодарите релизера, оцените раздачу и оставьте свои комментарий, если Вы скачали Самый медленный поезд через торрент бесплатно! Внесите свою лепту в развитие PiratBit!
    Комментировать посты могут только пользователи прошедшие не сложную регистрацию
    Показать сообщения:    

    Самый медленный поезд через торрент
    Скачать бесплатно Самый медленный поезд
    Самый медленный поезд скачать торрент
    Самый медленный поезд смотреть онлайн
    Cкачать фильм Самый медленный поезд бесплатно
    Самый медленный поезд скачать торрент в хорошем качестве
    Самый медленный поезд смотреть онлайн бесплатно в хорошем качестве


    Вы не можете начинать темы
    Вы не можете отвечать на сообщения
    Вы не можете редактировать свои сообщения
    Вы не можете удалять свои сообщения
    Вы не можете голосовать в опросах
    Вы не можете прикреплять файлы к сообщениям
    Вы можете скачивать файлы