Anonymous, добрый вечер, присоединяйтесь к нам в Telegram!, здесь всегда актуальный адрес сайта, оперативная поддержка и многое другое!

>

5.6

iTunes

7.4

MVO

5.7

MVO

1

7.7

1 сезон

6.8

iTunes

7.3

1 сезон

13

6.7

1 сезон

8.3

RePack

30

ULTIMATE

pack

9.9

Лицензия

ВАЖНО

ИГРА 18+

pack

7.3

RePack

MK11

7.7

RePack

jed

7.8

RePack

fifa19

8.5

RePack

RDR2

RePack

NEED FOR SPEED™ PAYBACK

4 сезон

9 сезон

Бесстыжие 9 сезон

Все сериалы

все сериалы на PB.wtf

RePack

FAR CRY 5

Anonymous, добрый вечер, мы катастрофически не успеваем собрать деньги на оплату серверов, помогите нам пожалуйста 5,10,15р., для нас важна любая помощь . В качестве благодарности мы отключим Вам всю рекламу на сайте (укажите свой ник в строку Ваше имя)!

×
  
Magnet ссылка

ЧОП / Сезон: 1 / Серии: 1-16 из 16 (Михаил Соловьев) [2016, комедия, WEB-DL 720p] pb.wtf

ЧОП через торрент pb.wtf

Размер: 8.58 GB | Добавлен: 2 года 2 мес. назад | Торрент скачан:22 раза
Смотреть онлайн ЧОП | Скачать    Ребята, помогите собрать деньги на оплату серверов!!!

10-08-2019 13:41 ЧОП Скачать торрент  

ЧОП
Год выпуска: 2015-2016
Страна: Россия
Жанр: комедия
Продолжительность: ~ 00:25:00 серия
Субтитры: отсутствуют

Режиссер: Михаил Соловьев

rating

В ролях:

Сергей Степин (Лев Борисович), Олег Масленников-Войтов (Толя), Сергей Терещенко (Федя), Сэм Никель (Андрей), Денис Бузин (Слава), Яна Кошкина (Снежана), Дмитрий Белоцерковский (Виталик), Али Алиев, Ислам Мамергов, Виталий Гумеров, Александр Зарядин, Артур Казбеков
Описание: Сериал повествует о жизни бизнес-центра «Соловей», в котором трудится частное охранное предприятие «Кедр». Лев Борисович, начальник ЧОП, является, как он сам считает, не только охранником материальных, но и морально-нравственных ценностей. В его подчинении находятся четыре охранника — Федя, Толя, Слава и новичок Андрей. Андрей мечтает стать рок-звездой, поэтому работой охранника не дорожит, но в первый же рабочий день встречает Снежану, работницу спа-салона, и потихоньку втягивается в будни бизнес-центра.Ограбление спермобанка, взрыв здания, разбитая «Феррари» — это не новый фильм с Джейсоном Стетхемом, а всего лишь история о паре дней из скромной жизни охранников бизнес-центра «Соловей».

Качество: WEB-DL 720p
Формат: MKV

Видео: MPEG-4 AVC, ~ 1280x720 (16:9), ~ 3000 Kbps
Аудио: АС3, 2 ch, 192 Кбит/с
скриншот  скриншот  скриншот  скриншот  скриншот  

скриншот  

Общее
Уникальный идентификатор : 222131147636710945277061920875809970030 (0xA71CE7233D5995E1B7B13A61F0A9976E)
Полное имя : D:\ЧОП\CHOP.(01x02).720p.[qqss44].mkv
Формат : Matroska
Версия формата : Version 2
Размер файла : 538 Мбайт
Продолжительность : 23 м. 18 с.
Общий поток : 3224 Кбит/сек
Дата кодирования : UTC 2015-04-07 16:38:35
Программа кодирования : mkvmerge v7.8.0 ('River Man') 64bit built on Mar 27 2015 16:31:37
Библиотека кодирования : libebml v1.3.1 + libmatroska v1.4.2

Видео
Идентификатор : 1
Формат : AVC
Формат/Информация : Advanced Video Codec
Профиль формата : High@L4
Параметр CABAC формата : Да
Параметр RefFrames формата : 8 кадров
Идентификатор кодека : V_MPEG4/ISO/AVC
Продолжительность : 23 м. 18 с.
Битрейт : 3030 Кбит/сек
Ширина : 1280 пикселей
Высота : 720 пикселей
Соотношение сторон : 16:9
Режим частоты кадров : Постоянный
Частота кадров : 25,000 кадров/сек
Цветовое пространство : YUV
Субдискретизация насыщенности : 4:2:0
Битовая глубина : 8 бит
Тип развёртки : Прогрессивная
Бит/(Пиксели*Кадры) : 0.132
Размер потока : 505 Мбайт (94%)
Библиотека кодирования : x264 core 142 r2455 021c0dc
Настройки программы : cabac=1 / ref=8 / deblock=1:-1:-1 / analyse=0x3:0x133 / me=umh / subme=9 / psy=1 / psy_rd=1.00:0.15 / mixed_ref=1 / me_range=16 / chroma_me=1 / trellis=2 / 8x8dct=1 / cqm=0 / deadzone=21,11 / fast_pskip=1 / chroma_qp_offset=-3 / threads=24 / lookahead_threads=2 / sliced_threads=0 / nr=0 / decimate=1 / interlaced=0 / bluray_compat=0 / constrained_intra=0 / bframes=3 / b_pyramid=2 / b_adapt=2 / b_bias=0 / direct=3 / weightb=1 / open_gop=0 / weightp=2 / keyint=100 / keyint_min=10 / scenecut=40 / intra_refresh=0 / rc_lookahead=60 / rc=crf / mbtree=1 / crf=17.0 / qcomp=0.60 / qpmin=0 / qpmax=69 / qpstep=4 / vbv_maxrate=3600 / vbv_bufsize=3600 / crf_max=0.0 / nal_hrd=none / filler=0 / ip_ratio=1.40 / aq=1:1.00
Default : Да
Forced : Нет

Аудио
Идентификатор : 2
Формат : AC-3
Формат/Информация : Audio Coding 3
Расширение режима : CM (complete main)
Параметр Endianness формата : Big
Идентификатор кодека : A_AC3
Продолжительность : 23 м. 18 с.
Вид битрейта : Постоянный
Битрейт : 192 Кбит/сек
Каналы : 2 канала
Расположение каналов : Front: L R
Частота : 48,0 КГц
Частота кадров : 31,250 кадров/сек (1536 spf)
Метод сжатия : С потерями
Размер потока : 32,0 Мбайт (6%)
Default : Да
Forced : Нет


pb.wtf



Скачать ЧОП через торрент http://img10.lostpic.net/2016/07/06/cf3530b16c2b2a9567afd55c2f587520.png Скачать, смотреть онлайн ЧОП бесплантно в хорошем качестве Описание: Сериал повествует о жизни бизнес-центра «Соловей», в котором трудится частное охранное предприятие «Кедр». Лев Борисович, ... 10 10 4
Торрент: Зарегистрирован [2019-08-10 13:46] · скачан: 22 раз
Статус: √ проверено
Размер: 8.58 GB
Как cкачать? Как скачать ЧОП через торрент | UTorrent

% Раздел Тема Автор DL S | L
TNT serials [ 10.95 GB ] ЧОП / Сезон: 1-2 / Серии: 1-32 из 32 [2015-2016 WEB-DLRip] bober100 Скачать
2 | 1
Наши сериалы [ 4.82 GB ] ЧОП / Сезон: 1 / Серии 1-16 из 20 [2015 Россия SATRip) GEKADOL Скачать
1 | 0

28-11-2019 20:33  

Отключить всю рекламу на сайте

    Дорогой пользователь! Огромная просьба, поблагодарите релизера, оцените раздачу и оставьте свои комментарий, если Вы скачали ЧОП через торрент бесплатно!
    Комментировать посты могут только пользователи прошедшие не сложную регистрацию
    Показать сообщения:    

    ЧОП через торрент
    Скачать бесплатно ЧОП
    ЧОП скачать торрент
    ЧОП смотреть онлайн
    Cкачать фильм ЧОП бесплатно
    ЧОП скачать торрент в хорошем качестве
    ЧОП смотреть онлайн бесплатно в хорошем качестве


    Вы не можете начинать темы
    Вы не можете отвечать на сообщения
    Вы не можете редактировать свои сообщения
    Вы не можете удалять свои сообщения
    Вы не можете голосовать в опросах
    Вы не можете прикреплять файлы к сообщениям
    Вы можете скачивать файлы