Мега распродажа FORZA HORIZON 4 ULTIMATE+ВСЕ DLC+ОНЛАЙН всего за 499р. 349 руб. (супер цена). Внимание количество ограничено!!!

iTunes

1+1

iTunes

мы

iTunes

1

iTunes

Чернобыль

1 сезон

Ральф против интернета

Лицензия

ПШазам

Лицензия

Игра престолов

Лицензия

30
pack

ВАЖНО

!!Акция!!

Alien_RageХит недели

RePack

Resident Evil 21

ИГРА 18+

pack

RePack

Metro:Exodus

!!Акция!!

Alien_Rage

RePack

fifa19

RePack

Assassins Creed: Odyssey

RePack

NEED FOR SPEED™ PAYBACK

3 сезон

9 сезон

Бесстыжие 9 сезон

Все сериалы

все сериалы на PB.wtf

RePack

FAR CRY 5
Ребята, катастрофически не хватает 7730р. для оплаты серверов за ИЮЛЬ (всвязи с блокировками трафик упал в 3 раза), 1-2р., выручайте.
  

Пацаны / The Boys / Сезон: 1 / Серии: 1-5 из 8 (Филип Сгриккиа) [2019, фантастика, боевик, комедия, криминал, UHD WEBRip 2160p] MVO [AlexFilm] +DVO [Кубик в Кубе] pb.wtf

Пацаны через торрент pb.wtf

Качают: 2 [ 0 KB/s ]
Размер: 32.45 GB | Добавлен: 3 д. назад | Торрент скачан:2 раза
Скачать  

10-08-2019 15:37 Пацаны Скачать торрент  

Пацаны / The Boys Год выпуска: 2019
Страна: США
Жанр: фантастика, боевик, комедия, криминал
Продолжительность: ~01:00:00
Перевод:

Профессиональное многоголосое закадровое | AlexFilm
Профессиональный (двухголосый закадровый) | Кубик в Кубе

Субтитры: Russian (Forced, Full |Amazon|, English (Full, SDH)

Режиссеры: Филип Сгриккиа, Дэниэл Эттиэс, Дженнифер Фанг

В ролях: Карл Урбан, Доминик МакЭллигот, Эрин Мориарти, Элизабет Шу, Энтони Старр, Дженнифер Эспозито, Саймон Пегг, Шантель Ван Сантен, Хэйли Джоэл Осмент, Чейс Кроуфорд, Нэйтан Митчелл, Джек Куэйд, Джесси Ашер, Билли Зейн, Джим Бивер, Лас Алонсо, жанкарло Эспозито, Джимми Фэллон, Тара Рид, Сет Роген и др.

Описание: Действие сериала разворачивается в мире, где существуют супергерои. Именно они являются настоящими звездами. Их все знают и обожают. Но за идеальным фасадом скрывается гораздо более мрачный мир наркотиков и секса, а большинство героев — в жизни не самые приятные люди. Для контроля за супергероями ЦРУ создает специальный отряд, неофициально известный как «Пацаны», суровые члены которого всегда готовы поставить зазнавшегося героя на место самым жестоким способом.

rating

Качество: UHD WEBRip 2160p
Формат: MKV

Видео: HEVC HDR, ~14,2 Mбит/с, 3840x2160, 10 Бит
Аудио#1 : AC3, 48,0 kHz, 6 ch, 384 kbps | AlexFilm
Аудио#2 : AC3, 48,0 kHz, 6 ch, 448 kbps | Кубик в Кубе
Аудио#3 : EAC3, 48,0 kHz, 6 ch, 640 kbps | Original
1. «Название игры»
2. "Вишня"
3. «Получить немного»
4. "Самка видов"
5. «Хорошо для души»
6. "Невинные"
7. «Общество самосохранения»
8. «Ты нашел меня»

скриншот  скриншот  скриншот  скриншот  

Формат : Matroska
Версия формата : Version 4 / Version 2
Размер файла : 6,72 Гбайт
Продолжительность : 1 ч. 0 м.
Общий поток : 16,0 Мбит/сек
Дата кодирования : UTC 2019-08-08 14:30:21
Программа кодирования : mkvmerge v6.2.0 ('Promised Land') built on Apr 28 2013 12:22:01
Библиотека кодирования : libebml v1.3.0 + libmatroska v1.4.0

Видео
Идентификатор : 1
Формат : HEVC
Формат/Информация : High Efficiency Video Coding
Коммерческое название : HDR10
Профиль формата : Main 10@L5@Main
Идентификатор кодека : V_MPEGH/ISO/HEVC
Продолжительность : 1 ч. 0 м.
Битрейт : 14,2 Мбит/сек
Ширина : 3840 пикселей
Высота : 2160 пикселей
Соотношение сторон : 16:9
Режим частоты кадров : Постоянный
Частота кадров : 23,976 (24000/1001) кадра/сек
Стандарт вещания : NTSC
Цветовое пространство : YUV
Субдискретизация насыщенности : 4:2:0 (Type 2)
Битовая глубина : 10 бит
Бит/(Пиксели*Кадры) : 0.071
Размер потока : 5,97 Гбайт (89%)
Язык : English
Default : Да
Forced : Нет
Цветовой диапазон : Limited
Основные цвета : BT.2020
Характеристики трансфера : PQ
Коэффициенты матрицы : BT.2020 non-constant
MasteringDisplay_ColorPrimaries : BT.709
MasteringDisplay_Luminance : min: 0.0001 cd/m2, max: 1000 cd/m2
MaxCLL : 848 cd/m2
MaxFALL : 151 cd/m2

Аудио #1
Идентификатор : 2
Формат : AC-3
Формат/Информация : Audio Coding 3
Идентификатор кодека : A_AC3
Продолжительность : 1 ч. 0 м.
Вид битрейта : Постоянный
Битрейт : 384 Кбит/сек
Каналы : 6 каналов
Расположение каналов : Front: L C R, Side: L R, LFE
Частота : 48,0 КГц
Частота кадров : 31,250 кадров/сек (1536 SPF)
Битовая глубина : 16 бит
Метод сжатия : С потерями
Размер потока : 165 Мбайт (2%)
Язык : Russian
ServiceKind/String : Complete Main
Default : Да
Forced : Нет

Аудио #2
Идентификатор : 3
Формат : AC-3
Формат/Информация : Audio Coding 3
Идентификатор кодека : A_AC3
Продолжительность : 1 ч. 0 м.
Вид битрейта : Постоянный
Битрейт : 448 Кбит/сек
Каналы : 6 каналов
Расположение каналов : Front: L C R, Side: L R, LFE
Частота : 48,0 КГц
Частота кадров : 31,250 кадров/сек (1536 SPF)
Битовая глубина : 16 бит
Метод сжатия : С потерями
Размер потока : 193 Мбайт (3%)
Язык : Russian
ServiceKind/String : Complete Main
Default : Нет
Forced : Нет

Аудио #3
Идентификатор : 4
Формат : E-AC-3
Формат/Информация : Enhanced Audio Coding 3
Идентификатор кодека : A_EAC3
Продолжительность : 1 ч. 0 м.
Вид битрейта : Постоянный
Битрейт : 640 Кбит/сек
Каналы : 6 каналов
Расположение каналов : Front: L C R, Side: L R, LFE
Частота : 48,0 КГц
Частота кадров : 187,500 кадров/сек (256 SPF)
Метод сжатия : С потерями
Размер потока : 275 Мбайт (4%)
Язык : English
ServiceKind/String : Complete Main
Default : Нет
Forced : Нет

Текст #1
Идентификатор : 5
Формат : UTF-8
Идентификатор кодека : S_TEXT/UTF8
Идентификатор кодека/Информация : UTF-8 Plain Text
Заголовок : Forced
Язык : Russian
Default : Нет
Forced : Нет

Текст #2
Идентификатор : 6
Формат : UTF-8
Идентификатор кодека : S_TEXT/UTF8
Идентификатор кодека/Информация : UTF-8 Plain Text
Язык : Russian
Default : Нет
Forced : Нет

Текст #3
Идентификатор : 7
Формат : UTF-8
Идентификатор кодека : S_TEXT/UTF8
Идентификатор кодека/Информация : UTF-8 Plain Text
Язык : English
Default : Нет
Forced : Нет

Меню
00:00:00.000 : en:Amazon Original
00:00:05.000 : en:Ratings
00:00:15.000 : en:Studio Logo
00:00:27.000 : en:Superheroes to the rescue
00:02:35.000 : en:A love cut short
00:06:39.000 : en:Meet Starlight
00:09:07.000 : en:Saying goodbye to Robin
00:11:56.000 : en:An important phone call
00:13:07.000 : en:Hughie wants to make things right
00:14:59.000 : en:A great time to be a superhero
00:19:11.000 : en:A-Train seems to be everywhere
00:20:06.000 : en:How bad do you want to be in the seven?
00:24:25.000 : en:Billy makes Hughie an offer
00:28:58.000 : en:Supes let loose
00:31:18.000 : en:Never let them see you cry
00:32:19.000 : en:Someone's trying to hide something
00:34:53.000 : en:Negotiations for a new hero
00:36:56.000 : en:Figure out who you are
00:41:26.000 : en:Hughie accepts the offer
00:42:42.000 : en:The first meeting of the new Seven
00:44:19.000 : en:Hughie does his part
00:51:19.000 : en:Madelyn caves on the deal
00:52:03.000 : en:An unexpected visitor
00:57:03.000 : en:Some bumpy turbulence
00:58:10.000 : en:End Credits

Когда раздача ведётся путём добавления новых серий, при каждом добавлении создётся новый торрент. Чтобы начать докачку новой серии, пользователям необходимо сделать следующее:
(1) остановить скачивание,
(2) удалить старый торрент у себя из клиента (старые серии удалять не надо),
(3) скачать новый торрент и запустить его у себя в клиенте вместо старого, при этом указать клиенту путь в старую папку, куда и должно происходить скачивание новых серий.
Ваш клиент при этом должен произвести хеширование (проверку) старой папки (если не производит сам - помогите ему сделать это), и будет докачивать только те серии, которых у вас ещё нет. Старые серии при этом не удаляются, а продолжают раздаваться!
Eсли вы уже удалили старые серии, то предотвратить повторную закачку старых серий можно, отжав галочку в соответсвующих местах при запуске нового торрента. По возможности, желательно не удалять старые серии как можно дольше, чтобы релизер не столько продолжал раздавать старые серии, а смог сконцентрироваться на новых.
pb.wtf



Скачать Пацаны через торрент https://i106.fastpic.ru/big/2019/0730/ba/95e1d4055bf0f36767defdf5a9a228ba.jpg Скачать фильм Пацаны через торрент бесплантно в хорошем качестве Описание: Действие сериала разворачивается в мире, где существуют супергерои. Именно они являются настоящими звездами. Их все знают и ... 10 10 2
Торрент: Зарегистрирован [2019-08-13 22:40] · скачан: 2 раз
Статус: √ проверено
Размер: 32.45 GB
Как cкачать? Как скачать Пацаны через торрент | qTorrent

% Раздел Тема Автор DL S | L
Зарубежные сериалы [ 5.27 GB ] Пацаны / The Boys / Сезон: 1 / Серии: 1-5 из 8 [2019 WEB-DLRip] MVO [LostFilm] bober100 Скачать
3 | 0
Зарубежные сериалы [ 8.67 GB ] Пацаны / The Boys / Сезон: 1 / Серии: 1-5 из 8 [2019 WEB-DL 720p] MVO [LostFilm] bober100 Скачать
5 | 1
Зарубежные сериалы [ 17.94 GB ] Пацаны / The Boys / Сезон: 1 / Серии: 1-5 из 8 [2019 WEB-DL 1080p] DVO [Кубик в кубе] bober100 Скачать
10 | 3
Зарубежные сериалы [ 5.66 GB ] Пацаны / The Boys / Сезон: 1 / Серии: 1-5 из 8 [2019 WEB-DLRip] DVO [Кубик в Кубе] bober100 Скачать
4 | 2


Последний раз редактировалось: bober100 (2019-08-13 22:40), всего редактировалось 2 раз(а)


>> Регистрируемся здесь <<






Отзывы и комментарии о схеме читаем и пишем здесь: ---> Отзывы и комментарии о схеме

Новые благодарочки в телеграм довольных пользователей:
скриншот   скриншот   скриншот   скриншот   скриншот

11-08-2019 06:15 Пацаны Скачать торрент  

годнотаpb.wtf



    Дорогой пользователь! Огромная просьба, поблагодарите релизера, оцените раздачу и оставьте свои комментарий, если Вы скачали Пацаны через торрент бесплатно! Внесите свою лепту в развитие PiratBit!
    Комментировать посты могут только пользователи прошедшие не сложную регистрацию
    Показать сообщения:    

    Пацаны через торрент
    Скачать бесплатно Пацаны
    Пацаны скачать торрент
    Пацаны смотреть онлайн
    Cкачать фильм Пацаны бесплатно
    Пацаны скачать торрент в хорошем качестве
    Пацаны смотреть онлайн бесплатно в хорошем качестве


    Вы не можете начинать темы
    Вы не можете отвечать на сообщения
    Вы не можете редактировать свои сообщения
    Вы не можете удалять свои сообщения
    Вы не можете голосовать в опросах
    Вы не можете прикреплять файлы к сообщениям
    Вы можете скачивать файлы