новый адрес
Ссылка на приватное зеркало всего за 1$. Внимание количество ограничено!!!

iTunes

1+1

iTunes

мы

WEB-DL

1

iTunes

Чернобыль

iTunes

Ральф против интернета

Лицензия

ПШазам

Лицензия

Оно 2

Лицензия

30
pack

Вам бонус

ВАЖНО

!!Акция!!

Alien_RageХит недели

RePack

Resident Evil 21

ИГРА 18+

pack

RePack

jed

!!Акция!!

Alien_Rage

RePack

fifa19

RePack

Assassins Creed: Odyssey

RePack

NEED FOR SPEED™ PAYBACK

3 сезон

9 сезон

Бесстыжие 9 сезон

Все сериалы

все сериалы на PB.wtf

RePack

FAR CRY 5
Ребята, катастрофически не хватает 1900р. для оплаты серверов за Октябрь (всвязи с блокировками трафик упал в 3 раза), 1-2р., выручайте.
  

Однажды в Стокгольме / Stockholm (Роберт Будро) [2018, Драма, комедия, криминал, WEB-DLRip-AVC] DUB [iTunes] pb.wtf

Однажды в Стокгольме через торрент pb.wtf

Раздают: 2 [ 0 KB/s ]
Размер: 1.38 GB | Добавлен: 3 мес. 28 д. назад | Торрент скачан:179 раз
Скачать  

10-08-2019 15:56 Однажды в Стокгольме Скачать торрент  

Однажды в Стокгольме / Stockholm«Based on an Absurd but True Story»
Год выпуска: 2018
Страна: Канада, США
Жанр: Драма, комедия, криминал
Продолжительность: 01:24:53
Перевод: Дублированный | iTunes
Субтитры: Отсутствуют

Режиссер: Роберт Будро

rating

В ролях: Марк Стронг, Нуми Рапас, Итэн Хоук, Кристофер Хейердал, Би Сантос, Торбьорн Харр, Шанти Рони, Марк Рендалл, Ханнеке Тэлбот, Джон Ралстон

Описание: История термина «стокгольмский синдром», возникшего после захвата шведского банка в 1973 году. Шесть дней вооруженный грабитель Ян-Эрик Олссон продержал в заложниках четырех сотрудников банка, которые впоследствии встали на его защиту.

Качество: WEB-DLRip-AVC
Формат: MKV

Видео: 1024x428 (2.40:1), 25,000 fps, x264 ~1 934 kbps avg, 0.177 bit/pixel
Аудио: 48 kHz, AC3 Dolby Digital, 3/2 (L,C,R,l,r) + LFE ch, ~384.00 kbps avg | RUS (iTunes)
скриншот  скриншот  скриншот  скриншот  

Общее
Уникальный идентификатор : 233244503282549376911776257174928388910 (0xAF7941DFF4EDDE2AD3AFF4C6EAD0732E)
Полное имя : F:OlLanDGroupStockholm.2019.WEB-DLRip(AVC).OlLanDGroup.mkv
Формат : Matroska
Версия формата : Version 4 / Version 2
Размер файла : 1,38 Гбайт
Продолжительность : 1 ч. 24 м.
Общий поток : 2320 Кбит/сек
Название фильма : Stockholm.2019 #TorpedoUK#
Дата кодирования : UTC 2019-07-15 15:59:12
Программа кодирования : mkvmerge v29.0.0 ('Like It Or Not') 64-bit
Библиотека кодирования : libebml v1.3.6 + libmatroska v1.4.9

Видео
Идентификатор : 1
Формат : AVC
Формат/Информация : Advanced Video Codec
Профиль формата : High@L4.1
Параметр CABAC формата : Да
Параметр ReFrames формата : 10 кадров
Идентификатор кодека : V_MPEG4/ISO/AVC
Продолжительность : 1 ч. 24 м.
Битрейт : 1934 Кбит/сек
Ширина : 1024 пикселя
Высота : 428 пикселей
Соотношение сторон : 2,40:1
Режим частоты кадров : Постоянный
Частота кадров : 25,000 кадров/сек
Цветовое пространство : YUV
Субдискретизация насыщенности : 4:2:0
Битовая глубина : 8 бит
Тип развёртки : Прогрессивная
Бит/(Пиксели*Кадры) : 0.177
Размер потока : 1,15 Гбайт (83%)
Библиотека кодирования : x264 core 146 r2538 121396c
Настройки программы : cabac=1 / ref=10 / deblock=1:-3:-3 / analyse=0x3:0x113 / me=umh / subme=11 / psy=1 / psy_rd=1.00:0.03 / mixed_ref=1 / me_range=48 / chroma_me=1 / trellis=2 / 8x8dct=1 / cqm=0 / deadzone=21,11 / fast_pskip=1 / chroma_qp_offset=-3 / threads=6 / lookahead_threads=1 / sliced_threads=0 / nr=0 / decimate=1 / interlaced=0 / bluray_compat=0 / constrained_intra=0 / bframes=11 / b_pyramid=2 / b_adapt=2 / b_bias=0 / direct=3 / weightb=1 / open_gop=0 / weightp=2 / keyint=250 / keyint_min=25 / scenecut=40 / intra_refresh=0 / rc_lookahead=40 / rc=2pass / mbtree=0 / bitrate=1934 / ratetol=1.0 / qcomp=0.60 / qpmin=0 / qpmax=69 / qpstep=4 / cplxblur=20.0 / qblur=0.5 / vbv_maxrate=50000 / vbv_bufsize=62500 / nal_hrd=none / filler=0 / ip_ratio=1.40 / pb_ratio=1.30 / aq=1:1.00
Язык : English
Default : Да
Forced : Нет

Аудио
Идентификатор : 2
Формат : AC-3
Формат/Информация : Audio Coding 3
Расширение режима : CM (complete main)
Параметр Endianness формата : Big
Идентификатор кодека : A_AC3
Продолжительность : 1 ч. 24 м.
Вид битрейта : Постоянный
Битрейт : 384 Кбит/сек
Каналы : 6 каналов
Расположение каналов : Front: L C R, Side: L R, LFE
Частота : 48,0 КГц
Частота кадров : 31,250 кадров/сек (1536 spf)
Битовая глубина : 16 бит
Метод сжатия : С потерями
Размер потока : 233 Мбайт (17%)
Заголовок : DUB [iTunes]
Язык : Russian
Default : Да
Forced : Нет

Меню
00:00:00.000 : en:Глава 1
00:08:34.480 : en:Глава 2
00:16:42.519 : en:Глава 3
00:25:02.638 : en:Глава 4
00:32:53.038 : en:Глава 5
00:41:01.518 : en:Глава 6
00:49:23.478 : en:Глава 7
00:57:26.517 : en:Глава 8
01:06:37.236 : en:Глава 9
01:14:34.435 : en:Глава 10

pb.wtf



Скачать Однажды в Стокгольме через торрент http://img16.lostpic.net/2019/06/05/ac313350ab3e8988ee38d1d43acfd35d.jpg Скачать фильм Однажды в Стокгольме через торрент бесплантно в хорошем качестве Описание: История термина «стокгольмский синдром», возникшего после захвата шведского банка в 1973 году. Шесть дней вооруженный грабитель ... 10 10 4
Торрент: Зарегистрирован [2019-08-10 15:56] · скачан: 179 раз
Статус: √ проверено
Размер: 1.38 GB
Как cкачать? Как скачать Однажды в Стокгольме через торрент | qTorrent

% Раздел Тема Автор DL S | L
Фильмы 2018 [DVDrip, WEB-DLRip, HDrip] (DUB, MVO) [ 1.42 GB ] Однажды в Стокгольме / Stockholm [2018 BDRip] - Twi7ter Скачать
15 | 1
Фильмы [HD 720p, 1080p] (Хороший звук DUB, MVO) [ 7.25 GB ] Однажды в Стокгольме / Stockholm [2018 BDRip 1080p] +MVO [HDRezka Studio] bober100 Скачать
2 | 0
Фильмы 2018 [DVDrip, WEB-DLRip, HDrip] (DUB, MVO) [ 1.42 GB ] Однажды в Стокгольме / Stockholm [2018 BDRip] bober100 Скачать
3 | 0
Фильмы (Blu-ray, BD-Remux, HDDVD) [ 16.49 GB ] Однажды в Стокгольме / Stockholm [2018 BD Remux 1080p] +MVO [HDRezka Studio] bober100 Скачать
1 | 0
Фильмы (WEB-DL 720p, 1080p) [ 6.08 GB ] Однажды в Стокгольме / Stockholm [2018 WEB-DL 1080p] +MVO [HDRezka Studio] bober100 Скачать
5 | 0

28-11-2019 20:33  

Отключить всю рекламу на сайте

    Дорогой пользователь! Огромная просьба, поблагодарите релизера, оцените раздачу и оставьте свои комментарий, если Вы скачали Однажды в Стокгольме через торрент бесплатно! Внесите свою лепту в развитие PiratBit!
    Комментировать посты могут только пользователи прошедшие не сложную регистрацию
    Показать сообщения:    

    Однажды в Стокгольме через торрент
    Скачать бесплатно Однажды в Стокгольме
    Однажды в Стокгольме скачать торрент
    Однажды в Стокгольме смотреть онлайн
    Cкачать фильм Однажды в Стокгольме бесплатно
    Однажды в Стокгольме скачать торрент в хорошем качестве
    Однажды в Стокгольме смотреть онлайн бесплатно в хорошем качестве


    Вы не можете начинать темы
    Вы не можете отвечать на сообщения
    Вы не можете редактировать свои сообщения
    Вы не можете удалять свои сообщения
    Вы не можете голосовать в опросах
    Вы не можете прикреплять файлы к сообщениям
    Вы можете скачивать файлы