Всегда рабочее зеркало без VPN и Proxy просто перед .vidak.icu напиши любое слово или цифру, Пример http://ic4u.vidak.icu

Лицензия

MVO

1 сезон

1

1 сезон

iTunes

1 сезон

13

1 сезон

Deluxe

pack

Рекомендуем

Repack

30

ВАЖНО

RePack

MK11

RePack

jed

RePack

fifa19

RePack

RDR2

RePack

NEED FOR SPEED™ PAYBACK

Кинопоиск HD

6 сезон

 Острые козырьки 6 сезон

Все сериалы

все сериалы на PB.wtf

RePack

FAR CRY 5
  
Magnet ссылка

Трансформеры 3: Тёмная сторона Луны / Transformers: Dark of the Moon (Майкл Бэй) [2011, Фантастика, боевик, приключения, UHD BDRemux 2160p] DUB (rus, ukr) [Лицензия] +MVO+2xAVO pb.wtf

Трансформеры 3: Тёмная сторона Луны через торрент pb.wtf

Размер: 93.83 GB | Добавлен: 3 года назад | Торрент скачан:18 раз
Смотреть онлайн Трансформеры 3: Тёмная сторона Луны | Скачать    Ребята, помогите собрать деньги на оплату серверов!!!

10-08-2019 16:29 Трансформеры 3: Тёмная сторона Луны Скачать торрент  

Трансформеры 3: Тёмная сторона Луны / Transformers: Dark of the Moon«Последний шанс цивилизации»
Год выпуска: 2011
Страна: США
Жанр: Фантастика, боевик, приключения
Продолжительность: 02:34:23
Перевод: Дублированный, профессиональный многоголосый, авторский
Субтитры: English, Russian (Full-length, Forced), Ukrainian (Full-length, Forced)

Режиссер: Майкл Бэй

rating

В ролях:

Шайа ЛаБаф (Sam Witwicky), Роузи Хантингтон-Уайтли (Carly), Джош Дюамель (Lennox), Джон Туртурро (Simmons), Патрик Демпси (Dylan), Фрэнсис МакДорманд (Mearing), Кен Жонг (Jerry Wang), Алан Тьюдик (Dutch), Джон Малкович (Bruce Brazos), Тайриз Гибсон (Epps), Питер Каллен (Optimus Prime, озвучка), Кевин Данн (Ron Witwicky)
Описание: Для наших героев наступили печальные будни: Сэм потерял Микаэлу, правительство выпускает законодательный акт о выселении Автоботов с Земли, а пока Мегатрон скрывается после позорного поражения Фоллена, десептикон Шокуэйв, правитель Кибертрона, готовится нанести визит нашей планете с совсем недобрыми намерениями. Действие заключительной части трилогии на этот раз охватит не только Землю, но и Луну, темная сторона которой хранит не менее темные тайны...

Качество: UHD BDRemux 2160p
Формат: MKV

Видео: MPEG-H HEVC Video / 60607 kbps / 3840x2160 / 23.976 fps / 16:9 / Main 10 Profile 5.1 High / 4:2:0 / 10 bits / HDR / BT.2020 /
Аудио#1: Russian: 48 kHz/24-bit, DTS-HD MA 7.1, ~5228.00 kbps avg |Дубляж|
Аудио#2: Russian: 48 kHz, AC3, 3/2 (L,C,R,l,r) + LFE ch, ~640 kbps avg |Дубляж|
Аудио#3: Russian: 48 kHz/24-bit, DTS-HD MA 7.1, ~5106.00 kbps avg |Многоголосый закадровый, BBC Saint-Petersburg|
Аудио#4: Russian: 48 kHz, AC3, 3/2 (L,C,R,l,r) + LFE ch, ~448 kbps avg |Одноголосый закадровый, Андрей Гаврилов|
Аудио#5: Russian: 48 kHz/24-bit, DTS-HD MA 7.1, ~5292.00 kbps avg |Одноголосый закадровый, Юрий Сербин|
Аудио#6: Ukrainian: 48 kHz, AC3, 3/2 (L,C,R,l,r) + LFE ch, ~384 kbps avg |Дубляж|
Аудио#7: English: 48 kHz/24-bit, DTS-HD MA 7.1, ~4165.00 kbps avg
Аудио#8: English: 48 kHz/24-bit, Dolby TrueHD with Dolby Atmos 7.1, ~4388.00 kbps avg
Аудио#9: English: 48 kHz, AC3, 3/2 (L,C,R,l,r) + LFE ch, ~640 kbps avg
скриншот  скриншот  скриншот  скриншот  

Общее
Уникальный идентификатор : 221358974392946708660443491350763676618 (0xA688300EB1D3A0394047ACDB998A23CA)
Полное имя : D:\Transformers.Pentalogy.2007-2017.UHD.HDR.Remux.TeamHD\Transformers.Dark.of.the.Moon.2011.UHD.2160p.mkv
Формат : Matroska
Версия формата : Version 4
Размер файла : 93,8 Гбайт
Продолжительность : 2 ч. 34 м.
Режим общего битрейта : Переменный
Общий поток : 87,0 Мбит/сек
Дата кодирования : UTC 2018-10-28 23:53:56
Программа кодирования : mkvmerge v28.2.0 ('The Awakening') 64-bit
Библиотека кодирования : libebml v1.3.6 + libmatroska v1.4.9

Видео
Идентификатор : 1
Формат : HEVC
Формат/Информация : High Efficiency Video Coding
Профиль формата : Main [email protected]@High
HDR_Format/String : SMPTE ST 2086, HDR10 compatible
Идентификатор кодека : V_MPEGH/ISO/HEVC
Продолжительность : 2 ч. 34 м.
Битрейт : 60,6 Мбит/сек
Ширина : 3840 пикселей
Высота : 2160 пикселей
Соотношение сторон : 16:9
Режим частоты кадров : Постоянный
Частота кадров : 23,976 (24000/1001) кадра/сек
Цветовое пространство : YUV
Субдискретизация насыщенности : 4:2:0 (Type 2)
Битовая глубина : 10 бит
Бит/(Пиксели*Кадры) : 0.305
Размер потока : 65,4 Гбайт (70%)
Default : Нет
Forced : Нет
Цветовой диапазон : Limited
Основные цвета : BT.2020
Характеристики трансфера : PQ
Коэффициенты матрицы : BT.2020 non-constant
MasteringDisplay_ColorPrimaries : Display P3
MasteringDisplay_Luminance : min: 0.0001 cd/m2, max: 1000 cd/m2

Аудио #1
Идентификатор : 2
Формат : DTS XLL
Формат/Информация : Digital Theater Systems
Коммерческое название : DTS-HD Master Audio
Идентификатор кодека : A_DTS
Продолжительность : 2 ч. 34 м.
Вид битрейта : Переменный
Битрейт : 5228 Кбит/сек
Каналы : 8 каналов
ChannelLayout : C L R LFE Lb Rb Lss Rss
Частота : 48,0 КГц
Частота кадров : 93,750 кадра/сек (512 SPF)
Битовая глубина : 24 бит
Метод сжатия : Без потерь
Размер потока : 5,64 Гбайт (6%)
Заголовок : дублированный
Язык : Russian
Default : Нет
Forced : Нет

Аудио #2
Идентификатор : 3
Формат : AC-3
Формат/Информация : Audio Coding 3
Коммерческое название : Dolby Digital
Идентификатор кодека : A_AC3
Продолжительность : 2 ч. 34 м.
Вид битрейта : Постоянный
Битрейт : 640 Кбит/сек
Каналы : 6 каналов
ChannelLayout : L R C LFE Ls Rs
Частота : 48,0 КГц
Частота кадров : 31,250 кадров/сек (1536 SPF)
Битовая глубина : 16 бит
Метод сжатия : С потерями
Размер потока : 707 Мбайт (1%)
Заголовок : дублированный
Язык : Russian
ServiceKind/String : Complete Main
Default : Нет
Forced : Нет

Аудио #3
Идентификатор : 4
Формат : DTS XLL
Формат/Информация : Digital Theater Systems
Коммерческое название : DTS-HD Master Audio
Идентификатор кодека : A_DTS
Продолжительность : 2 ч. 34 м.
Вид битрейта : Переменный
Битрейт : 5106 Кбит/сек
Каналы : 8 каналов
ChannelLayout : C L R LFE Lb Rb Lss Rss
Частота : 48,0 КГц
Частота кадров : 93,750 кадра/сек (512 SPF)
Битовая глубина : 24 бит
Метод сжатия : Без потерь
Размер потока : 5,51 Гбайт (6%)
Заголовок : 'BBC Saint-Petersburg
Язык : Russian
Default : Нет
Forced : Нет

Аудио #4
Идентификатор : 5
Формат : AC-3
Формат/Информация : Audio Coding 3
Коммерческое название : Dolby Digital
Идентификатор кодека : A_AC3
Продолжительность : 2 ч. 34 м.
Вид битрейта : Постоянный
Битрейт : 448 Кбит/сек
Каналы : 6 каналов
ChannelLayout : L R C LFE Ls Rs
Частота : 48,0 КГц
Частота кадров : 31,250 кадров/сек (1536 SPF)
Битовая глубина : 16 бит
Метод сжатия : С потерями
Размер потока : 495 Мбайт (1%)
Заголовок : Андрей Гаврилов
Язык : Russian
ServiceKind/String : Complete Main
Default : Нет
Forced : Нет

Аудио #5
Идентификатор : 6
Формат : DTS XLL
Формат/Информация : Digital Theater Systems
Коммерческое название : DTS-HD Master Audio
Идентификатор кодека : A_DTS
Продолжительность : 2 ч. 34 м.
Вид битрейта : Переменный
Битрейт : 5292 Кбит/сек
Каналы : 8 каналов
ChannelLayout : C L R LFE Lb Rb Lss Rss
Частота : 48,0 КГц
Частота кадров : 93,750 кадра/сек (512 SPF)
Битовая глубина : 24 бит
Метод сжатия : Без потерь
Размер потока : 5,71 Гбайт (6%)
Заголовок : Юрий Сербин
Язык : Russian
Default : Нет
Forced : Нет

Аудио #6
Идентификатор : 7
Формат : AC-3
Формат/Информация : Audio Coding 3
Коммерческое название : Dolby Digital
Идентификатор кодека : A_AC3
Продолжительность : 2 ч. 34 м.
Вид битрейта : Постоянный
Битрейт : 384 Кбит/сек
Каналы : 6 каналов
ChannelLayout : L R C LFE Ls Rs
Частота : 48,0 КГц
Частота кадров : 31,250 кадров/сек (1536 SPF)
Битовая глубина : 16 бит
Метод сжатия : С потерями
Размер потока : 424 Мбайт (0%)
Заголовок : дублированный
Язык : Ukrainian
ServiceKind/String : Complete Main
Default : Нет
Forced : Нет

Аудио #7
Идентификатор : 8
Формат : DTS XLL
Формат/Информация : Digital Theater Systems
Коммерческое название : DTS-HD Master Audio
Идентификатор кодека : A_DTS
Продолжительность : 2 ч. 34 м.
Вид битрейта : Переменный
Битрейт : 4165 Кбит/сек
Каналы : 8 каналов
ChannelLayout : C L R LFE Lb Rb Lss Rss
Частота : 48,0 КГц
Частота кадров : 93,750 кадра/сек (512 SPF)
Битовая глубина : 24 бит
Метод сжатия : Без потерь
Размер потока : 4,49 Гбайт (5%)
Язык : English
Default : Нет
Forced : Нет

Аудио #8
Идентификатор : 9
Формат : MLP FBA 16-ch
Формат/Информация : Meridian Lossless Packing FBA with 16-channel presentation
Коммерческое название : Dolby TrueHD with Dolby Atmos
Идентификатор кодека : A_TRUEHD
Продолжительность : 2 ч. 34 м.
Вид битрейта : Переменный
Битрейт : 4388 Кбит/сек
Максимальный битрейт : 6510 Кбит/сек
Каналы : 8 каналов
ChannelLayout : L R C LFE Ls Rs Lb Rb
Частота : 48,0 КГц
Частота кадров : 1200,000 кадров/сек (40 SPF)
Метод сжатия : Без потерь
Размер потока : 4,73 Гбайт (5%)
Язык : English
Default : Нет
Forced : Нет
NumberOfDynamicObjects : 11
BedChannelCount/String : 1 канал
BedChannelConfiguration : LFE

Аудио #9
Идентификатор : 10
Формат : AC-3
Формат/Информация : Audio Coding 3
Коммерческое название : Dolby Digital
Идентификатор кодека : A_AC3
Продолжительность : 2 ч. 34 м.
Вид битрейта : Постоянный
Битрейт : 640 Кбит/сек
Каналы : 6 каналов
ChannelLayout : L R C LFE Ls Rs
Частота : 48,0 КГц
Частота кадров : 31,250 кадров/сек (1536 SPF)
Битовая глубина : 16 бит
Метод сжатия : С потерями
Размер потока : 707 Мбайт (1%)
Язык : English
ServiceKind/String : Complete Main
Default : Нет
Forced : Нет

Текст #1
Идентификатор : 11
Формат : PGS
Режим смешивания : zlib
Идентификатор кодека : S_HDMV/PGS
Идентификатор кодека/Информация : Picture based subtitle format used on BDs/HD-DVDs
Продолжительность : 2 ч. 25 м.
Битрейт : 44,6 Кбит/сек
ElementCount : 4134
Размер потока : 46,5 Мбайт (0%)
Язык : English
Default : Нет
Forced : Нет

Текст #2
Идентификатор : 12
Формат : PGS
Режим смешивания : zlib
Идентификатор кодека : S_HDMV/PGS
Идентификатор кодека/Информация : Picture based subtitle format used on BDs/HD-DVDs
Продолжительность : 2 ч. 33 м.
Битрейт : 31,4 Кбит/сек
ElementCount : 3700
Размер потока : 34,5 Мбайт (0%)
Язык : Russian
Default : Нет
Forced : Нет

Текст #3
Идентификатор : 13
Формат : PGS
Режим смешивания : zlib
Идентификатор кодека : S_HDMV/PGS
Идентификатор кодека/Информация : Picture based subtitle format used on BDs/HD-DVDs
Продолжительность : 2 ч. 33 м.
Битрейт : 41,8 Кбит/сек
ElementCount : 4164
Размер потока : 45,9 Мбайт (0%)
Язык : Ukrainian
Default : Нет
Forced : Нет

Текст #4
Идентификатор : 14
Формат : PGS
Режим смешивания : zlib
Идентификатор кодека : S_HDMV/PGS
Идентификатор кодека/Информация : Picture based subtitle format used on BDs/HD-DVDs
Продолжительность : 1 ч. 29 м.
Битрейт : 369 бит/сек
ElementCount : 20
Размер потока : 241 Кбайт (0%)
Язык : Russian
Default : Нет
Forced : Нет

pb.wtf



Скачать Трансформеры 3: Тёмная сторона Луны через торрент https://b.radikal.ru/b43/1810/1c/e56af4e37d63.png Скачать, смотреть онлайн Трансформеры 3: Тёмная сторона Луны бесплантно в хорошем качестве Описание: Для наших героев наступили печальные будни: Сэм потерял Микаэлу, правительство выпускает законодательный акт о выселении ... 10 10 5
Info! Золотая раздача, скачанное не засчитывается.
Торрент: Зарегистрирован [2019-08-10 16:29] · скачан: 18 раз
Статус: √ проверено
Размер: 93.83 GB
Как cкачать? Как скачать Трансформеры 3: Тёмная сторона Луны через торрент | UTorrent

28-11-2019 20:33  

Отключить вcю реклaмy на сайте

    Дорогой пользователь! Огромная просьба, поблагодарите релизера, оцените раздачу и оставьте свои комментарий, если Вы скачали Трансформеры 3: Тёмная сторона Луны через торрент бесплатно!
    Комментировать посты могут только пользователи прошедшие не сложную регистрацию
    Показать сообщения:    

    Трансформеры 3: Тёмная сторона Луны через торрент
    Скачать бесплатно Трансформеры 3: Тёмная сторона Луны
    Трансформеры 3: Тёмная сторона Луны скачать торрент
    Трансформеры 3: Тёмная сторона Луны смотреть онлайн
    Cкачать фильм Трансформеры 3: Тёмная сторона Луны бесплатно
    Трансформеры 3: Тёмная сторона Луны скачать торрент в хорошем качестве
    Трансформеры 3: Тёмная сторона Луны смотреть онлайн бесплатно в хорошем качестве


    Вы не можете начинать темы
    Вы не можете отвечать на сообщения
    Вы не можете редактировать свои сообщения
    Вы не можете удалять свои сообщения
    Вы не можете голосовать в опросах
    Вы не можете прикреплять файлы к сообщениям
    Вы можете скачивать файлы