Ссылка на приватное зеркало нашего сайта всего за 1$. Внимание количество ограничено!!!

2 сезон

iTunes

1 сезон

1

iTunes

iTunes

iTunes

1 сезон

RePack

30

ИГРА 18+

pack

ВАЖНО

!!Акция!!

Alien_RageХит недели

RePack

MK11
pack

Забери бонус

RePack

jed

!!Акция!!

Alien_Rage

RePack

fifa19

RePack

Assassins Creed: Odyssey

RePack

NEED FOR SPEED™ PAYBACK

4 сезон

9 сезон

Бесстыжие 9 сезон

Все сериалы

все сериалы на PB.wtf

RePack

FAR CRY 5
  

Счастливый брак / A Good Marriage (Питер Эскин) [2014, триллер, драма, BDRip 720p] MVO pb.wtf

Счастливый брак через торрент pb.wtf

Раздают: 2 [ 0 KB/s ]
Размер: 3.67 GB | Добавлен: 1 год 2 мес. назад | Торрент скачан:87 раз
Скачать  

10-08-2019 20:48 Счастливый брак Скачать торрент  

Счастливый брак / A Good Marriage
Год выпуска: 2014
Страна: США
Жанр: триллер, драма
Продолжительность: 01:42:24
Перевод: Профессиональный (многоголосый)
Субтитры: Русские, английские

Режиссер: Питер Эскин

rating

В ролях:

Джоан Аллен (Darcy Anderson), Энтони ЛаПалья (Bob Anderson), Стивен Лэнг (Holt Ramsey), Кара Буоно (Betty Pike), Кристен Коннолли (Petra Anderson), Майк О’Мэлли (Bill Gaines), Тео Стокман (Donnie Anderson), Уилл Роджерс (Vince Dorne), Пан Банду (TV Anchor), Терра Макинтош (News Reporter), Роберт Хоган (Minister), Sean Dugan (Cleric)
Описание: После 25 лет счастливого брака Дарси узнаёт зловещий секрет о своём муже. Как быть, если под угрозой не только семья, но и жизнь?

Качество: BDRip 720p
Формат: MKV

Видео: MPEG-4 AVC, 1280x532 (2.40:1), 23.976 fps, 4204 Kbps, 0.257 bit/pixel
Аудио#1: Russian: AC3 / 2.0 / 48 kHz / 192 kbps - MVO
Аудио#2: English: AC3 / 5.1 / 48 kHz / 640 kbps - Оригинал
скриншот  скриншот  скриншот  скриншот  

скриншот  скриншот  скриншот  скриншот  

Общее
Уникальный идентификатор : 239842407856186240489069292797445660062 (0xB46FF7AF8C913B469928F2A88F41DD9E)
Полное имя : A Good Marriage.2014.BDRip.720p.mkv
Формат : Matroska
Версия формата : Version 2
Размер файла : 3,67 Гбайт
Продолжительность : 1 ч. 42 м.
Общий поток : 5138 Кбит/сек
Название фильма : Счастливый брак / A Good Marriage (2014)
Дата кодирования : UTC 2017-11-17 11:01:57
Программа кодирования : mkvmerge v5.8.0 ('No Sleep / Pillow') built on Sep 2 2012 15:37:04
Библиотека кодирования : libebml v1.2.3 + libmatroska v1.3.0
Обложка : Yes
Attachments : cover.jpg

Видео
Идентификатор : 1
Формат : AVC
Формат/Информация : Advanced Video Codec
Профиль формата : High@L4.1
Параметр CABAC формата : Да
Параметр RefFrames формата : 11 кадров
Идентификатор кодека : V_MPEG4/ISO/AVC
Продолжительность : 1 ч. 42 м.
Битрейт : 4203 Кбит/сек
Ширина : 1280 пикселей
Высота : 532 пикселя
Соотношение сторон : 2,40:1
Режим частоты кадров : Постоянный
Частота кадров : 23,976 (24000/1001) кадра/сек
Цветовое пространство : YUV
Субдискретизация насыщенности : 4:2:0
Битовая глубина : 8 бит
Тип развёртки : Прогрессивная
Бит/(Пиксели*Кадры) : 0.257
Размер потока : 3,01 Гбайт (82%)
Заголовок : A Good Marriage (2014)
Библиотека кодирования : x264 core 148 r2665kMod a01e339
Настройки программы : cabac=1 / ref=11 / deblock=1:-3:-2 / analyse=0x3:0x113 / me=umh / subme=11 / psy=1 / fade_compensate=0.00 / psy_rd=1.00:0.00 / mixed_ref=1 / me_range=48 / chroma_me=1 / trellis=2 / 8x8dct=1 / cqm=0 / deadzone=21,11 / fast_pskip=0 / chroma_qp_offset=-2 / threads=12 / lookahead_threads=3 / sliced_threads=0 / nr=0 / decimate=1 / interlaced=0 / bluray_compat=0 / constrained_intra=0 / fgo=0 / bframes=16 / b_pyramid=2 / b_adapt=2 / b_bias=0 / direct=3 / weightb=1 / open_gop=0 / weightp=2 / keyint=250 / keyint_min=23 / scenecut=40 / intra_refresh=0 / rc_lookahead=60 / rc=crf / mbtree=0 / crf=17.0000 / qcomp=0.65 / qpmin=0 / qpmax=69 / qpstep=4 / vbv_maxrate=62500 / vbv_bufsize=78125 / crf_max=0.0 / nal_hrd=none / filler=0 / ip_ratio=1.40 / pb_ratio=1.30 / aq=3:0.83
Язык : English
Default : Да
Forced : Нет
Цветовой диапазон : Limited
Основные цвета : BT.709
Характеристики трансфера : BT.709
Коэффициенты матрицы : BT.709

Аудио #1
Идентификатор : 2
Формат : AC-3
Формат/Информация : Audio Coding 3
Параметр Endianness формата : Big
Идентификатор кодека : A_AC3
Продолжительность : 1 ч. 42 м.
Вид битрейта : Постоянный
Битрейт : 192 Кбит/сек
Каналы : 2 канала
Расположение каналов : Front: L R
Частота : 48,0 КГц
Частота кадров : 31,250 кадров/сек (1536 SPF)
Битовая глубина : 16 бит
Метод сжатия : С потерями
Размер потока : 141 Мбайт (4%)
Заголовок : MVO
Язык : Russian
Default : Да
Forced : Нет

Аудио #2
Идентификатор : 3
Формат : AC-3
Формат/Информация : Audio Coding 3
Параметр Endianness формата : Big
Идентификатор кодека : A_AC3
Продолжительность : 1 ч. 42 м.
Вид битрейта : Постоянный
Битрейт : 640 Кбит/сек
Каналы : 6 каналов
Расположение каналов : Front: L C R, Side: L R, LFE
Частота : 48,0 КГц
Частота кадров : 31,250 кадров/сек (1536 SPF)
Битовая глубина : 16 бит
Метод сжатия : С потерями
Размер потока : 469 Мбайт (12%)
Заголовок : Оригинал
Язык : English
Default : Нет
Forced : Нет

Текст #1
Идентификатор : 4
Формат : UTF-8
Идентификатор кодека : S_TEXT/UTF8
Идентификатор кодека/Информация : UTF-8 Plain Text
Заголовок : полные - er45ty
Язык : Russian
Default : Нет
Forced : Нет

Текст #2
Идентификатор : 5
Формат : UTF-8
Идентификатор кодека : S_TEXT/UTF8
Идентификатор кодека/Информация : UTF-8 Plain Text
Заголовок : full
Язык : English
Default : Нет
Forced : Нет

Меню
00:00:00.000 : en:00:00:00.000
00:12:01.721 : en:00:12:01.721
00:24:40.521 : en:00:24:40.521
00:34:38.493 : en:00:34:38.493
00:44:23.202 : en:00:44:23.202
00:55:32.037 : en:00:55:32.037
01:06:26.858 : en:01:06:26.858
01:10:41.446 : en:01:10:41.446
01:19:31.308 : en:01:19:31.308
01:28:49.699 : en:01:28:49.699

pb.wtf



Скачать Счастливый брак через торрент http://i4.imageban.ru/out/2018/06/12/f725046ed56740ac1262523f213f5b8f.png Скачать фильм Счастливый брак через торрент бесплантно в хорошем качестве Описание: После 25 лет счастливого брака Дарси узнаёт зловещий секрет о своём муже. Как быть, если под угрозой не только семья, но и ... 10 10 4
Торрент: Зарегистрирован [2019-08-10 20:48] · скачан: 87 раз
Статус: √ проверено
Размер: 3.67 GB
Как cкачать? Как скачать Счастливый брак через торрент | qTorrent

% Раздел Тема Автор DL S | L
Фильмы 2014 [DVDrip, WEB-DLRip, HDrip] [ 1.46 GB ] Счастливый брак / A Good Marriage [2014 HDRip] MVO GEKADOL Скачать
1 | 0

28-11-2019 20:33  

Отключить всю рекламу на сайте

    Дорогой пользователь! Огромная просьба, поблагодарите релизера, оцените раздачу и оставьте свои комментарий, если Вы скачали Счастливый брак через торрент бесплатно! Внесите свою лепту в развитие PiratBit!
    Комментировать посты могут только пользователи прошедшие не сложную регистрацию
    Показать сообщения:    

    Счастливый брак через торрент
    Скачать бесплатно Счастливый брак
    Счастливый брак скачать торрент
    Счастливый брак смотреть онлайн
    Cкачать фильм Счастливый брак бесплатно
    Счастливый брак скачать торрент в хорошем качестве
    Счастливый брак смотреть онлайн бесплатно в хорошем качестве


    Вы не можете начинать темы
    Вы не можете отвечать на сообщения
    Вы не можете редактировать свои сообщения
    Вы не можете удалять свои сообщения
    Вы не можете голосовать в опросах
    Вы не можете прикреплять файлы к сообщениям
    Вы можете скачивать файлы