новый адрес пиратбит piratbit
Мега распродажа FORZA HORIZON 4 ULTIMATE+ВСЕ DLC+ОНЛАЙН всего за 499р. 349 руб. (супер цена). Внимание количество ограничено!!!

iTunes

1+1

iTunes

мы

iTunes

1

iTunes

Чернобыль

iTunes

Ральф против интернета

Лицензия

ПШазам

Лицензия

Игра престолов

Лицензия

30
pack

ВАЖНО

!!Акция!!

Alien_RageХит недели

RePack

Resident Evil 21

ИГРА 18+

pack

RePack

Metro:Exodus

!!Акция!!

Alien_Rage

RePack

fifa19

RePack

Assassins Creed: Odyssey

RePack

NEED FOR SPEED™ PAYBACK

3 сезон

9 сезон

Бесстыжие 9 сезон

Все сериалы

все сериалы на PB.wtf

RePack

FAR CRY 5
Ребята, катастрофически не хватает 1900р. для оплаты серверов за Октябрь (всвязи с блокировками трафик упал в 3 раза), 1-2р., выручайте.
  

Плейбой под прикрытием / Nicky Larson et le parfum de Cupidon (Филипп Лашо) [2018, боевик, комедия, криминал, BDRip 720p от potroks] Dub [iTunes] pb.wtf

Плейбой под прикрытием через торрент pb.wtf

Раздают: 3 [ 0 KB/s ]
Размер: 4.61 GB | Добавлен: 3 мес. 1 д. назад | Торрент скачан:107 раз
Скачать  

11-08-2019 01:45 Плейбой под прикрытием Скачать торрент  

Плейбой под прикрытием / Nicky Larson et le parfum de Cupidon

Год выпуска: 2018
Страна: Франция
Жанр: боевик, комедия, криминал
Продолжительность: 01:31:18
Перевод: Дубляж [iTunes]
Субтитры: русские, французские
Навигация по главам: есть

Режиссер: Филипп Лашо
В ролях:

Филипп Лашо (Nicky Larson), Элоди Фонтан (Laura), Тарек Будали (Pancho), Жюльен Аррути (Skippy), Дидье Бурдон (Letellier), Памела Андерсон (Jessica Fox), Жерар Жюньо (Le psy), Камел Генфу (Mammouth), Одри Лами (La femme de Skippy), Шанталь Ладезу (La belle-mère de Skippy), Джерри (Monsieur Mokori), Рафаэль Персонас (Tony)

Описание: Частный детектив (и ловелас по совместительству), известный как Городской Охотник, получает на руки запутанное дело. По просьбе своей эффектной и неприступной напарницы сыщик соглашается взяться за работу. Теперь плейбою под прикрытием предстоит отправиться в Монако — на территорию больших денег и красивых женщин…



Качество: BDRip 720p
Формат: MKV
Видео: 1280x536 at 23,976 fps, AVC, x264@L4.1, 5838 kbps
Аудио №1: AC3 / 5.1 / 48 kHz / 384 kbps | RUS
Аудио №2: AC3 / 5.1 / 48 kHz / 384 kbps | UKR
Аудио №3: AC3 / 5.1 / 48 kHz / 640 kbps | ENG
Общее
Уникальный идентификатор : 142243515864016064329813202531694940531 (0x6B031ACAFB1D1E2280D331C477A41173)
Полное имя : N:\Nicky.Larson.Et.Le.Parfum.De.Cupidon.2019.720p.Rus.Fre.TeamHD-potroks.mkv
Формат : Matroska
Версия формата : Version 4
Размер файла : 4,61 Гбайт
Продолжительность : 1 ч. 31 м.
Общий поток : 7239 Кбит/сек
Дата кодирования : UTC 2019-08-02 14:32:57
Программа кодирования : mkvmerge v35.0.0 ('All The Love In The World') 64-bit
Библиотека кодирования : libebml v1.3.9 + libmatroska v1.5.2

Видео
Идентификатор : 1
Формат : AVC
Формат/Информация : Advanced Video Codec
Профиль формата : High@L4.1
Настройки формата : CABAC / 12 Ref Frames
Параметр CABAC формата : Да
Параметр RefFrames формата : 12 кадров
Идентификатор кодека : V_MPEG4/ISO/AVC
Продолжительность : 1 ч. 31 м.
Битрейт : 5838 Кбит/сек
Ширина : 1280 пикселей
Высота : 536 пикселей
Соотношение сторон : 2,40:1
Режим частоты кадров : Постоянный
Частота кадров : 24,000 кадра/сек
Цветовое пространство : YUV
Субдискретизация насыщенности : 4:2:0
Битовая глубина : 8 бит
Тип развёртки : Прогрессивная
Бит/(Пиксели*Кадры) : 0.355
Размер потока : 3,72 Гбайт (81%)
Заголовок : potroks
Библиотека кодирования : x264 core 157 r2958 57baac4
Настройки программы : cabac=1 / ref=12 / deblock=1:-1:-1 / analyse=0x3:0x133 / me=umh / subme=11 / psy=1 / psy_rd=0.96:0.00 / mixed_ref=1 / me_range=48 / chroma_me=1 / trellis=2 / 8x8dct=1 / cqm=0 / deadzone=21,11 / fast_pskip=0 / chroma_qp_offset=-2 / threads=9 / lookahead_threads=2 / sliced_threads=0 / nr=0 / decimate=0 / interlaced=0 / bluray_compat=0 / constrained_intra=0 / bframes=11 / b_pyramid=2 / b_adapt=2 / b_bias=0 / direct=3 / weightb=1 / open_gop=0 / weightp=2 / keyint=240 / keyint_min=23 / scenecut=40 / intra_refresh=0 / rc_lookahead=100 / rc=2pass / mbtree=0 / bitrate=5838 / ratetol=1.0 / qcomp=0.70 / qpmin=0 / qpmax=69 / qpstep=4 / cplxblur=20.0 / qblur=0.5 / vbv_maxrate=50000 / vbv_bufsize=62500 / nal_hrd=none / filler=0 / ip_ratio=1.40 / pb_ratio=1.30 / aq=1:0.70
Язык : French
Default : Да
Forced : Нет
Цветовой диапазон : Limited
Основные цвета : BT.709
Характеристики трансфера : BT.709
Коэффициенты матрицы : BT.709

Аудио #1
Идентификатор : 2
Формат : AC-3
Формат/Информация : Audio Coding 3
Коммерческое название : Dolby Digital
Идентификатор кодека : A_AC3
Продолжительность : 1 ч. 31 м.
Вид битрейта : Постоянный
Битрейт : 384 Кбит/сек
Каналы : 6 каналов
Channel layout : L R C LFE Ls Rs
Частота : 48,0 КГц
Частота кадров : 31,250 кадров/сек (1536 SPF)
Битовая глубина : 16 бит
Метод сжатия : С потерями
Размер потока : 251 Мбайт (5%)
Заголовок : Dub | DD 5.1@ 384 kbps - iTunes
Язык : Russian
ServiceKind/String : Complete Main
Default : Да
Forced : Нет

Аудио #2
Идентификатор : 3
Формат : AC-3
Формат/Информация : Audio Coding 3
Коммерческое название : Dolby Digital
Идентификатор кодека : A_AC3
Продолжительность : 1 ч. 31 м.
Вид битрейта : Постоянный
Битрейт : 384 Кбит/сек
Каналы : 6 каналов
Channel layout : L R C LFE Ls Rs
Частота : 48,0 КГц
Частота кадров : 31,250 кадров/сек (1536 SPF)
Битовая глубина : 16 бит
Метод сжатия : С потерями
Размер потока : 251 Мбайт (5%)
Заголовок : Dub | DD 5.1@ 384 kbps - iTunes
Язык : Ukrainian
ServiceKind/String : Complete Main
Default : Нет
Forced : Нет

Аудио #3
Идентификатор : 4
Формат : AC-3
Формат/Информация : Audio Coding 3
Коммерческое название : Dolby Digital
Идентификатор кодека : A_AC3
Продолжительность : 1 ч. 31 м.
Вид битрейта : Постоянный
Битрейт : 640 Кбит/сек
Каналы : 6 каналов
Channel layout : L R C LFE Ls Rs
Частота : 48,0 КГц
Частота кадров : 31,250 кадров/сек (1536 SPF)
Битовая глубина : 16 бит
Метод сжатия : С потерями
Размер потока : 418 Мбайт (9%)
Заголовок : Original | DD 5.1 @ 640 kbps
Язык : French
ServiceKind/String : Complete Main
Default : Нет
Forced : Нет

Текст #1
Идентификатор : 5
Формат : UTF-8
Идентификатор кодека : S_TEXT/UTF8
Идентификатор кодека/Информация : UTF-8 Plain Text
Продолжительность : 1 ч. 30 м.
Битрейт : 77 бит/сек
ElementCount : 1188
Размер потока : 51,4 Кбайт (0%)
Заголовок : iTunes
Язык : Russian
Default : Нет
Forced : Нет

Текст #2
Идентификатор : 6
Формат : UTF-8
Идентификатор кодека : S_TEXT/UTF8
Идентификатор кодека/Информация : UTF-8 Plain Text
Продолжительность : 1 ч. 30 м.
Битрейт : 61 бит/сек
ElementCount : 1743
Размер потока : 40,5 Кбайт (0%)
Заголовок : Full
Язык : French
Default : Нет
Forced : Нет

Меню
00:00:00.000 : fr:Chapter 01
00:06:35.541 : fr:Chapter 02
00:17:02.208 : fr:Chapter 03
00:26:28.583 : fr:Chapter 04
00:33:25.500 : fr:Chapter 05
00:40:12.375 : fr:Chapter 06
00:48:23.791 : fr:Chapter 07
00:53:50.375 : fr:Chapter 08
01:04:50.708 : fr:Chapter 09
01:09:02.291 : fr:Chapter 10
01:20:15.666 : fr:Chapter 11
01:28:28.291 : fr:Chapter 12
01:31:11.000 : fr:Chapter 13
pb.wtf



Скачать Плейбой под прикрытием через торрент https://i5.imageban.ru/out/2019/08/11/285613bfed934e1c973fec7476330567.png Скачать фильм Плейбой под прикрытием через торрент бесплантно в хорошем качестве Описание: Частный детектив (и ловелас по совместительству), известный как Городской Охотник, получает на руки запутанное дело. По просьбе ... 10 10 1
Info! Золотая раздача, скачанное не засчитывается.
Торрент: Зарегистрирован [2019-08-11 01:45] · скачан: 107 раз
Статус: √ проверено
Размер: 4.61 GB
Как cкачать? Как скачать Плейбой под прикрытием через торрент | qTorrent

% Раздел Тема Автор DL S | L
Фильмы [HD 720p, 1080p] (Хороший звук DUB, MVO) [ 7.26 GB ] Плейбой под прикрытием / Nicky Larson et le parfum de Cupidon [2018 BDRip 1080p] DUB bober100 Скачать
2 | 0
Фильмы [HD 720p, 1080p] (Хороший звук DUB, MVO) [ 3.82 GB ] Плейбой под прикрытием / Nicky Larson et le parfum de Cupidon [2018 BDRip 720p] DUB bober100 Скачать
2 | 0
Фильмы 2018 [DVDrip, WEB-DLRip, HDrip] (DUB, MVO) [ 746 MB ] Плейбой под прикрытием / Nicky Larson et le parfum de Cupidon [2018 BDRip-AVC] sokol_ok Скачать
7 | 0
Фильмы 2018 [DVDrip, WEB-DLRip, HDrip] (DUB, MVO) [ 2.2 GB ] Плейбой под прикрытием / Nicky Larson et le parfum de Cupidon [2018 BDRip-AVC] sokol_ok Скачать
17 | 2
Фильмы 2018 [DVDrip, WEB-DLRip, HDrip] (DUB, MVO) [ 1.48 GB ] Плейбой под прикрытием / Nicky Larson et le parfum de Cupidon [2018 BDRip-AVC] sokol_ok Скачать
20 | 0
Фильмы 2018 [DVDrip, WEB-DLRip, HDrip] (DUB, MVO) [ 1.42 GB ] Плейбой под прикрытием / Nicky Larson et le parfum de Cupidon [2018 BDRip] - Twi7ter Скачать
19 | 0
Фильмы 2018 [DVDrip, WEB-DLRip, HDrip] (DUB, MVO) [ 1.46 GB ] Плейбой под прикрытием / Nicky Larson et le parfum de Cupidon [2018 BDRip] killermax2013 Скачать
6 | 0


>> Регистрируемся здесь <<






Отзывы и комментарии о схеме читаем и пишем здесь: ---> Отзывы и комментарии о схеме

Новые благодарочки в телеграм довольных пользователей:
скриншот   скриншот   скриншот   скриншот   скриншот

11-08-2019 10:03 Плейбой под прикрытием Скачать торрент  

уже после первого скрина смотреть чёт не тянет....pb.wtf



11-08-2019 17:57 Плейбой под прикрытием Скачать торрент  

Koshmarwin писал(а):

уже после первого скрина смотреть чёт не тянет....

Согласен!))pb.wtf



    Дорогой пользователь! Огромная просьба, поблагодарите релизера, оцените раздачу и оставьте свои комментарий, если Вы скачали Плейбой под прикрытием через торрент бесплатно! Внесите свою лепту в развитие PiratBit!
    Комментировать посты могут только пользователи прошедшие не сложную регистрацию
    Показать сообщения:    

    Плейбой под прикрытием через торрент
    Скачать бесплатно Плейбой под прикрытием
    Плейбой под прикрытием скачать торрент
    Плейбой под прикрытием смотреть онлайн
    Cкачать фильм Плейбой под прикрытием бесплатно
    Плейбой под прикрытием скачать торрент в хорошем качестве
    Плейбой под прикрытием смотреть онлайн бесплатно в хорошем качестве


    Вы не можете начинать темы
    Вы не можете отвечать на сообщения
    Вы не можете редактировать свои сообщения
    Вы не можете удалять свои сообщения
    Вы не можете голосовать в опросах
    Вы не можете прикреплять файлы к сообщениям
    Вы можете скачивать файлы