2 сезон

iTunes

MVO

1

2 сезон

iTunes

iTunes

1 сезон

RePack

30

Новинка

ВАЖНО

ИГРА 18+

pack

RePack

MK11
pack

Легкие деньги

RePack

jed

RePack

fifa19

RePack

RDR2

RePack

NEED FOR SPEED™ PAYBACK

4 сезон

9 сезон

Бесстыжие 9 сезон

Все сериалы

все сериалы на PB.wtf

RePack

FAR CRY 5

Anonymous, добрый вечер, мы не успеваем собрать деньги на оплату серверов за декабрь и январь, помогите нам пожалуйста в это трудное время. В качестве благодарности мы отключим Вам всю рекламу на сайте (укажите свой ник в строку Ваше имя)!

×
  
Magnet ссылка

Эпоха за эпохой / Time After Time / Сезон: 1 / Серии: 1-12 из 12 (Маркос Сига, Стив Шилл, Майкл А. Алловиц) [2017, Фантастика, драма, детектив, приключения, WEBRip 1080p] MVO [TVShows] pb.wtf

Эпоха за эпохой через торрент pb.wtf

Размер: 38.54 GB | Добавлен: 1 год 5 мес. назад | Торрент скачан:9 раз
Скачать  

11-08-2019 05:03 Эпоха за эпохой Скачать торрент  

Эпоха за эпохой | Time After Time Год выпуска: 2017
Страна: США
Жанр: Фантастика, драма, детектив, приключения
Продолжительность: ~ 00:44:00
Перевод: Профессиональный (многоголосый закадровый) | TVShows
Субтитры: Eng

Режиссёр: Маркос Сига, Стив Шилл, Майкл А. Алловиц

В ролях: Уилл Чейз, Фредди Строма, Omar Maskati, Дженезис Родригез, Jonathan Mielec, Алан Ариано, Майкл Бенц, Джош Боуман, Райан Бертон, Джули Серда и др.

Описание: Сериальную основу составили мотивы одноименного фильма 1979 года выпуска, который приобрёл культовый статус в среде поклонников научной фантастики и вышедшему ранее роману с тем же названием. Главные герои этих трёх произведений и сами – фигуры культовые в своей среде. Это едва ли не первый фантаст Герберт Уэллс и один из первых серийных маньяков Джек, которого напуганные им современники метко прозвали Потрошителем.

Невероятная история эта берёт своё начало в Лондоне 1893 года. Молодой Герберт Уэллс устраивает презентацию своего нового изобретения – действующей машины времени. На мероприятие приходят его знакомые, люди известные, этаких звёзд той эпохи. Среди других присутствует и Лесли Джон Стефансон – хирург и приятель Герберта по колледжу. Под этим именем скрывается Джек Потрошитель, наводивший тогда ужас на лондонские трущобы.

Неожиданно на мероприятии появляются детективы Скотланд-Ярда, у которых к хирургу есть вопросы. Мигом сориентировавшись, Стефансон прыгает в машину и отправляется в будущее, попадая в американский Сан-Франциско. По задумке изобретателя аппарат после использования возвращается в своё родное время. Когда это происходит, ощущающий свою ответственность Уэллс отправляется вслед за Потрошителем.

Релиз от rating

Качество: WEBRip 1080p
Формат: MKV

Видео: AVC, 1920x1080 (16:9), 23.976 fps, ~ 9 000 kb/s
Аудио Rus: AC3, 48.0 KHz, 6 channels, 384 kbps
Аудио Eng: E-AC3, 48.0 KHz, 6 channels, 640 kbps


Реклама отсутствует
General
Unique ID : 176921565435483962226166185353030442730 (0x8519DAA4336C313E5CB438A94CC89EEA)
Complete name : G:80р. TVShows\Time.After.Time.S01.1080p.TVShows\Time.After.Time.S01E03.1080p.TVShows.mkv
Format : Matroska
Format version : Version 4 / Version 2
File size : 2.91 GiB
Duration : 42 min 8 s
Overall bit rate mode : Variable
Overall bit rate : 9 888 kb/s
Encoded date : UTC 2018-10-30 13:31:57
Writing application : mkvmerge v28.2.0 ('The Awakening') 32-bit
Writing library : libebml v1.3.6 + libmatroska v1.4.9

Video
ID : 1
Format : AVC
Format/Info : Advanced Video Codec
Format profile : High@L4
Format settings, CABAC : Yes
Format settings, ReFrames : 4 frames
Codec ID : V_MPEG4/ISO/AVC
Duration : 42 min 8 s
Bit rate mode : Variable
Bit rate : 8 861 kb/s
Maximum bit rate : 15.0 Mb/s
Width : 1 920 pixels
Height : 1 080 pixels
Display aspect ratio : 16:9
Frame rate mode : Constant
Frame rate : 23.976 (24000/1001) FPS
Color space : YUV
Chroma subsampling : 4:2:0
Bit depth : 8 bits
Scan type : Progressive
Bits/(Pixel*Frame) : 0.178
Stream size : 2.61 GiB (90%)
Default : Yes
Forced : No
Color range : Limited
Color primaries : BT.709
Transfer characteristics : BT.709
Matrix coefficients : BT.709

Audio #1
ID : 2
Format : AC-3
Format/Info : Audio Coding 3
Mode extension : CM (complete main)
Format settings, Endianness : Big
Codec ID : A_AC3
Duration : 42 min 8 s
Bit rate mode : Constant
Bit rate : 384 kb/s
Channel(s) : 6 channels
Channel positions : Front: L C R, Side: L R, LFE
Sampling rate : 48.0 kHz
Frame rate : 31.250 FPS (1536 spf)
Bit depth : 16 bits
Compression mode : Lossy
Stream size : 116 MiB (4%)
Title : TVShows
Language : Russian
Default : Yes
Forced : No

Audio #2
ID : 3
Format : E-AC-3
Format/Info : Enhanced Audio Coding 3
Format settings, Endianness : Big
Codec ID : A_EAC3
Duration : 42 min 8 s
Bit rate mode : Constant
Bit rate : 640 kb/s
Channel(s) : 6 channels
Channel positions : Front: L C R, Side: L R, LFE
Sampling rate : 48.0 kHz
Frame rate : 187.500 FPS (256 spf)
Compression mode : Lossy
Stream size : 193 MiB (6%)
Title : Original
Language : English
Default : No
Forced : No

Text
ID : 4
Format : UTF-8
Codec ID : S_TEXT/UTF8
Codec ID/Info : UTF-8 Plain Text
Duration : 41 min 20 s
Bit rate : 75 b/s
Count of elements : 774
Stream size : 22.8 KiB (0%)
Title : English
Language : English
Default : No
Forced : No
pb.wtf



Скачать Эпоха за эпохой через торрент http://i89.fastpic.ru/big/2017/0307/05/ca23231f7d12e76ee24140669792c605.png Скачать фильм Эпоха за эпохой через торрент бесплантно в хорошем качестве Описание: Сериальную основу составили мотивы одноименного фильма 1979 года выпуска, который приобрёл культовый статус в среде поклонников ... 10 10 2
Торрент: Зарегистрирован [2019-08-11 05:03] · скачан: 9 раз
Статус: √ проверено
Размер: 38.54 GB
Как cкачать? Как скачать Эпоха за эпохой через торрент | UTorrent

% Раздел Тема Автор DL S | L
Зарубежные сериалы [ 7.02 GB ] Эпоха за эпохой / Time After Time / Сезон 1 / Серии 1-12 из 12 [2017 WEB-DLRip WEBRip] MVO [BaibaKo] bober100 Скачать
1 | 0
Зарубежные сериалы [ 9.35 GB ] Эпоха за эпохой / Time After Time / Сезон: 1 / Серии 1-12 из 12 [2017 WEB-DLRip-AVC WEBRip-AVC] MVO [BaibaKo] GEKADOL Скачать
1 | 0

28-11-2019 20:33  

Отключить всю рекламу на сайте

    Дорогой пользователь! Огромная просьба, поблагодарите релизера, оцените раздачу и оставьте свои комментарий, если Вы скачали Эпоха за эпохой через торрент бесплатно! Внесите свою лепту в развитие PiratBit!
    Комментировать посты могут только пользователи прошедшие не сложную регистрацию
    Показать сообщения:    

    Эпоха за эпохой через торрент
    Скачать бесплатно Эпоха за эпохой
    Эпоха за эпохой скачать торрент
    Эпоха за эпохой смотреть онлайн
    Cкачать фильм Эпоха за эпохой бесплатно
    Эпоха за эпохой скачать торрент в хорошем качестве
    Эпоха за эпохой смотреть онлайн бесплатно в хорошем качестве


    Вы не можете начинать темы
    Вы не можете отвечать на сообщения
    Вы не можете редактировать свои сообщения
    Вы не можете удалять свои сообщения
    Вы не можете голосовать в опросах
    Вы не можете прикреплять файлы к сообщениям
    Вы можете скачивать файлы