Ссылка на приватное зеркало всего за 1$. Внимание количество ограничено!!!

iTunes

iTunes

iTunes

1

iTunes

iTunes

iTunes

iTunes

iTunes

30
pack

Новость дня

ВАЖНО

!!Акция!!

Alien_RageХит недели

RePack

Resident Evil 21

ИГРА 18+

pack

RePack

jed

!!Акция!!

Alien_Rage

RePack

fifa19

RePack

Assassins Creed: Odyssey

RePack

NEED FOR SPEED™ PAYBACK

4 сезон

9 сезон

Бесстыжие 9 сезон

Все сериалы

все сериалы на PB.wtf

RePack

FAR CRY 5
  

Олдбой / Oldeuboi (Пак Чхан Ук) [2003, триллер, драма, детектив, BDRip 1080p] DUB+DVO+MVO+VO+2xAVO pb.wtf

Олдбой через торрент pb.wtf

Раздают: 1 [ 0 KB/s ]
Размер: 21.31 GB | Добавлен: 7 мес. назад | Торрент скачан:24 раза
Скачать  

11-08-2019 05:54 Олдбой Скачать торрент  

Олдбой / Oldeuboi
Год выпуска: 2003
Страна: Южная Корея
Жанр: триллер, драма, детектив
Продолжительность: 01:59:56
Переводы:

Перевод 1: Профессиональный (дублированный) | Cinema Prestige
Перевод 2: Профессиональный (двухголосый закадровый) | Tycoon Studio
Перевод 3: Профессиональный (многоголосый закадровый) | Первый канал
Перевод 4: Одноголосый (закадровый) | @PD
Перевод 5: Авторский (одноголосый закадровый) | Ю. Сербин
Перевод 6: Авторский (одноголосый закадровый) | С. Визгунов

Субтитры: Русские (Cinema Prestige, Tycoon, evro, Комментарии), английский (Tycoon, 3*комментарии)

Режиссер: Пак Чхан Ук

rating

В ролях: Чхве Мин Сик, Ю Чжи Тэ, Кан Хё Чжон, Чи Дэ Хан, О Даль Су, Ким Пён Ок, Ли Сон Син, Юн Чжин Со, Ли Дэ Ён, О Кван Рок

Описание: 1988 год. Обыкновенный и ничем не примечательный бизнесмен по имени О Дэ Су в день трёхлетия своей дочери по пути домой напивается, начинает хулиганить и закономерно попадает в полицейский участок. Из участка его под своё поручительство забирает друг детства по имени Чжу Хван. Пока Чжу Хван звонит домой жене незадачливого пьяницы, О Дэ Су пропадает. Неизвестные похищают его и помещают в камеру частной тюрьмы. Камера состоит из комнаты и санузла, в ней есть телевизор, но нет окон...

Качество: BDRip 1080p
Формат: MKV

Видео: MPEG-4 AVC, 18300 Кбит/с, 1916x830, 23,976 кадр/сек
Аудио#1: АС3, 6 ch, 384 kbps, 48 kHz - DUB - «Cinema Prestige»
Аудио#2: АС3, 6 ch, 448 kbps, 48 kHz - DVO - «Tycoon»
Аудио#3: AC-3,2 ch, 192 kbps, 48 kHz - MVO - «Первый канал»
Аудио#4: DTS, 6 ch, 1509 kbps, 48 kHz - AVO - «Ю.Сербин»
Аудио#5: DTS, 6 ch, 1509 kbps, 48 kHz - AVO - « С.Визгунов»
Аудио#6: АС3, 6 ch, 640 kbps, 48 kHz - VO - «@PD»
Аудио#7: AC3 5.1, 640 kbps, 48 kHz - Dub «English»
Аудио#8: DTS, 6 ch, 1509 kbps, 48 kHz - «Original - «Korean»
Аудио#9: АС3, 2 ch, 224 kbps, 48 kHz - Комментарии режиссера - «Korean»
Аудио#10: АС3, 2 ch, 224 kbps, 48 kHz - Комментарии режиссера и главного оператора - «Korean»
Аудио#11: АС3, 2 ch, 224 kbps, 48 kHz - Комментарии режиссера и актеров - «Korean»
скриншот  скриншот  скриншот  скриншот  скриншот  

Общее
Уникальный идентификатор : 288765137326378159328935275958739422884 (0xD93E247A0A78A45DD378FE489F204EA4)
Полное имя : D:\torrents\Oldeuboi.2003.1080p.mkv
Формат : Matroska
Версия формата : Version 4 / Version 2
Размер файла : 21,3 Гбайт
Продолжительность : 1 ч. 59 м.
Общий поток : 25,4 Мбит/сек
Дата кодирования : UTC 2018-04-01 11:18:21
Программа кодирования : mkvmerge v20.0.0 ('I Am The Sun') 64-bit
Библиотека кодирования : libebml v1.3.5 + libmatroska v1.4.8
Обложка : Yes
Attachments : cover.jpg / xlog.txt

Видео
Идентификатор : 1
Формат : AVC
Формат/Информация : Advanced Video Codec
Профиль формата : High@L4.1
Параметр CABAC формата : Да
Параметр ReFrames формата : 5 кадров
Идентификатор кодека : V_MPEG4/ISO/AVC
Продолжительность : 1 ч. 59 м.
Битрейт : 18,3 Мбит/сек
Ширина : 1916 пикселей
Высота : 830 пикселей
Соотношение сторон : 2,35:1
Режим частоты кадров : Постоянный
Частота кадров : 23,976 (24000/1001) кадра/сек
Цветовое пространство : YUV
Субдискретизация насыщенности : 4:2:0
Битовая глубина : 8 бит
Тип развёртки : Прогрессивная
Бит/(Пиксели*Кадры) : 0.481
Размер потока : 15,4 Гбайт (72%)
Библиотека кодирования : x264 core 148 r2638kMod 7599210
Настройки программы : cabac=1 / ref=5 / deblock=1:-2:-2 / analyse=0x3:0x133 / me=umh / subme=11 / psy=1 / fade_compensate=0.00 / psy_rd=1.00:0.00 / mixed_ref=1 / me_range=32 / chroma_me=1 / trellis=2 / 8x8dct=1 / cqm=0 / deadzone=21,11 / fast_pskip=1 / chroma_qp_offset=-2 / threads=12 / lookahead_threads=2 / sliced_threads=0 / nr=0 / decimate=1 / interlaced=0 / bluray_compat=0 / constrained_intra=0 / fgo=0 / bframes=8 / b_pyramid=2 / b_adapt=2 / b_bias=0 / direct=1 / weightb=1 / open_gop=0 / weightp=2 / keyint=250 / keyint_min=23 / scenecut=40 / intra_refresh=0 / rc_lookahead=60 / rc=crf / mbtree=0 / crf=17.0000 / qcomp=0.70 / qpmin=0 / qpmax=69 / qpstep=4 / vbv_maxrate=62500 / vbv_bufsize=78125 / crf_max=0.0 / nal_hrd=none / filler=0 / ip_ratio=1.40 / pb_ratio=1.10 / aq=1:0.80
Язык : Korean
Default : Да
Forced : Нет
Цветовой диапазон : Limited
Основные цвета : BT.709
Характеристики трансфера : BT.709
Коэффициенты матрицы : BT.709

Аудио #1
Идентификатор : 2
Формат : AC-3
Формат/Информация : Audio Coding 3
Параметр Endianness формата : Big
Идентификатор кодека : A_AC3
Продолжительность : 1 ч. 59 м.
Вид битрейта : Постоянный
Битрейт : 384 Кбит/сек
Каналы : 6 каналов
Расположение каналов : Front: L C R, Side: L R, LFE
Частота : 48,0 КГц
Частота кадров : 31,250 кадров/сек (1536 spf)
Битовая глубина : 16 бит
Метод сжатия : С потерями
Размер потока : 329 Мбайт (2%)
Заголовок : Dub, Cinema Prestige
Язык : Russian
ServiceKind/String : Complete Main
Default : Да
Forced : Нет

Аудио #2
Идентификатор : 3
Формат : AC-3
Формат/Информация : Audio Coding 3
Параметр Endianness формата : Big
Идентификатор кодека : A_AC3
Продолжительность : 1 ч. 59 м.
Вид битрейта : Постоянный
Битрейт : 448 Кбит/сек
Каналы : 6 каналов
Расположение каналов : Front: L C R, Side: L R, LFE
Частота : 48,0 КГц
Частота кадров : 31,250 кадров/сек (1536 spf)
Битовая глубина : 16 бит
Метод сжатия : С потерями
Размер потока : 384 Мбайт (2%)
Заголовок : DVO, Tycoon Studio
Язык : Russian
ServiceKind/String : Complete Main
Default : Нет
Forced : Нет

Аудио #3
Идентификатор : 4
Формат : AC-3
Формат/Информация : Audio Coding 3
Параметр Endianness формата : Big
Идентификатор кодека : A_AC3
Продолжительность : 1 ч. 59 м.
Вид битрейта : Постоянный
Битрейт : 192 Кбит/сек
Каналы : 2 канала
Расположение каналов : Front: L R
Частота : 48,0 КГц
Частота кадров : 31,250 кадров/сек (1536 spf)
Битовая глубина : 16 бит
Метод сжатия : С потерями
Размер потока : 165 Мбайт (1%)
Заголовок : MVO, Первый канал
Язык : Russian
ServiceKind/String : Complete Main
Default : Нет
Forced : Нет

Аудио #4
Идентификатор : 5
Формат : AC-3
Формат/Информация : Audio Coding 3
Параметр Endianness формата : Big
Идентификатор кодека : A_AC3
Продолжительность : 1 ч. 59 м.
Вид битрейта : Постоянный
Битрейт : 640 Кбит/сек
Каналы : 6 каналов
Расположение каналов : Front: L C R, Side: L R, LFE
Частота : 48,0 КГц
Частота кадров : 31,250 кадров/сек (1536 spf)
Битовая глубина : 16 бит
Метод сжатия : С потерями
Размер потока : 549 Мбайт (3%)
Заголовок : VO, @PD
Язык : Russian
ServiceKind/String : Complete Main
Default : Нет
Forced : Нет

Аудио #5
Идентификатор : 6
Формат : DTS
Формат/Информация : Digital Theater Systems
Режим : 16
Параметр Endianness формата : Big
Идентификатор кодека : A_DTS
Продолжительность : 1 ч. 59 м.
Вид битрейта : Постоянный
Битрейт : 1509 Кбит/сек
Каналы : 6 каналов
Расположение каналов : Front: L C R, Side: L R, LFE
Частота : 48,0 КГц
Частота кадров : 93,750 кадра/сек (512 spf)
Битовая глубина : 16 бит
Метод сжатия : С потерями
Размер потока : 1,26 Гбайт (6%)
Заголовок : AVO, Ю. Сербин
Язык : Russian
Default : Нет
Forced : Нет

Аудио #6
Идентификатор : 7
Формат : DTS
Формат/Информация : Digital Theater Systems
Режим : 16
Параметр Endianness формата : Big
Идентификатор кодека : A_DTS
Продолжительность : 1 ч. 59 м.
Вид битрейта : Постоянный
Битрейт : 1509 Кбит/сек
Каналы : 6 каналов
Расположение каналов : Front: L C R, Side: L R, LFE
Частота : 48,0 КГц
Частота кадров : 93,750 кадра/сек (512 spf)
Битовая глубина : 16 бит
Метод сжатия : С потерями
Размер потока : 1,26 Гбайт (6%)
Заголовок : AVO, С. Визгунов
Язык : Russian
Default : Нет
Forced : Нет

Аудио #7
Идентификатор : 8
Формат : AC-3
Формат/Информация : Audio Coding 3
Параметр Endianness формата : Big
Идентификатор кодека : A_AC3
Продолжительность : 1 ч. 59 м.
Вид битрейта : Постоянный
Битрейт : 224 Кбит/сек
Каналы : 2 канала
Расположение каналов : Front: L R
Частота : 48,0 КГц
Частота кадров : 31,250 кадров/сек (1536 spf)
Битовая глубина : 16 бит
Метод сжатия : С потерями
Размер потока : 192 Мбайт (1%)
Заголовок : Dub - English
Язык : English
ServiceKind/String : Complete Main
Default : Нет
Forced : Нет

Аудио #8
Идентификатор : 9
Формат : DTS
Формат/Информация : Digital Theater Systems
Режим : 16
Параметр Endianness формата : Big
Идентификатор кодека : A_DTS
Продолжительность : 1 ч. 59 м.
Вид битрейта : Постоянный
Битрейт : 1509 Кбит/сек
Каналы : 6 каналов
Расположение каналов : Front: L C R, Side: L R, LFE
Частота : 48,0 КГц
Частота кадров : 93,750 кадра/сек (512 spf)
Битовая глубина : 24 бит
Метод сжатия : С потерями
Размер потока : 1,26 Гбайт (6%)
Заголовок : Original - Korean
Язык : Korean
Default : Нет
Forced : Нет

Аудио #9
Идентификатор : 10
Формат : AC-3
Формат/Информация : Audio Coding 3
Параметр Endianness формата : Big
Идентификатор кодека : A_AC3
Продолжительность : 1 ч. 59 м.
Вид битрейта : Постоянный
Битрейт : 224 Кбит/сек
Каналы : 2 канала
Расположение каналов : Front: L R
Частота : 48,0 КГц
Частота кадров : 31,250 кадров/сек (1536 spf)
Битовая глубина : 16 бит
Метод сжатия : С потерями
Размер потока : 192 Мбайт (1%)
Заголовок : Комментарии режиссера
Язык : Korean
ServiceKind/String : Complete Main
Default : Нет
Forced : Нет

Аудио #10
Идентификатор : 11
Формат : AC-3
Формат/Информация : Audio Coding 3
Параметр Endianness формата : Big
Идентификатор кодека : A_AC3
Продолжительность : 1 ч. 59 м.
Вид битрейта : Постоянный
Битрейт : 224 Кбит/сек
Каналы : 2 канала
Расположение каналов : Front: L R
Частота : 48,0 КГц
Частота кадров : 31,250 кадров/сек (1536 spf)
Битовая глубина : 16 бит
Метод сжатия : С потерями
Размер потока : 192 Мбайт (1%)
Заголовок : Комментарии режиссера и главного оператора
Язык : Korean
ServiceKind/String : Complete Main
Default : Нет
Forced : Нет

Аудио #11
Идентификатор : 12
Формат : AC-3
Формат/Информация : Audio Coding 3
Параметр Endianness формата : Big
Идентификатор кодека : A_AC3
Продолжительность : 1 ч. 59 м.
Вид битрейта : Постоянный
Битрейт : 224 Кбит/сек
Каналы : 2 канала
Расположение каналов : Front: L R
Частота : 48,0 КГц
Частота кадров : 31,250 кадров/сек (1536 spf)
Битовая глубина : 16 бит
Метод сжатия : С потерями
Размер потока : 192 Мбайт (1%)
Заголовок : Комментарии режиссера и актеров
Язык : Korean
ServiceKind/String : Complete Main
Default : Нет
Forced : Нет

Текст #1
Идентификатор : 13
Формат : UTF-8
Идентификатор кодека : S_TEXT/UTF8
Идентификатор кодека/Информация : UTF-8 Plain Text
Продолжительность : 1 ч. 57 м.
Битрейт : 56 бит/сек
ElementCount : 969
Размер потока : 48,8 Кбайт (0%)
Заголовок : Cinema Prestige
Язык : Russian
Default : Нет
Forced : Нет

Текст #2
Идентификатор : 14
Формат : UTF-8
Идентификатор кодека : S_TEXT/UTF8
Идентификатор кодека/Информация : UTF-8 Plain Text
Продолжительность : 1 ч. 56 м.
Битрейт : 60 бит/сек
ElementCount : 1053
Размер потока : 51,1 Кбайт (0%)
Заголовок : Tycoon
Язык : Russian
Default : Нет
Forced : Нет

Текст #3
Идентификатор : 15
Формат : UTF-8
Идентификатор кодека : S_TEXT/UTF8
Идентификатор кодека/Информация : UTF-8 Plain Text
Продолжительность : 1 ч. 56 м.
Битрейт : 58 бит/сек
ElementCount : 1056
Размер потока : 49,7 Кбайт (0%)
Заголовок : evro
Язык : Russian
Default : Нет
Forced : Нет

Текст #4
Идентификатор : 16
Формат : UTF-8
Идентификатор кодека : S_TEXT/UTF8
Идентификатор кодека/Информация : UTF-8 Plain Text
Продолжительность : 1 ч. 56 м.
Битрейт : 33 бит/сек
ElementCount : 1059
Размер потока : 28,7 Кбайт (0%)
Заголовок : Tycoon
Язык : English
Default : Нет
Forced : Нет

Текст #5
Идентификатор : 17
Формат : UTF-8
Идентификатор кодека : S_TEXT/UTF8
Идентификатор кодека/Информация : UTF-8 Plain Text
Продолжительность : 1 ч. 59 м.
Битрейт : 111 бит/сек
ElementCount : 1596
Размер потока : 98,2 Кбайт (0%)
Заголовок : Комментарии режиссера
Язык : Russian
Default : Нет
Forced : Нет

Текст #6
Идентификатор : 18
Формат : UTF-8
Идентификатор кодека : S_TEXT/UTF8
Идентификатор кодека/Информация : UTF-8 Plain Text
Продолжительность : 1 ч. 59 м.
Битрейт : 138 бит/сек
ElementCount : 1710
Размер потока : 121 Кбайт (0%)
Заголовок : Комментарии режиссера и главного оператора
Язык : Russian
Default : Нет
Forced : Нет

Текст #7
Идентификатор : 19
Формат : UTF-8
Идентификатор кодека : S_TEXT/UTF8
Идентификатор кодека/Информация : UTF-8 Plain Text
Продолжительность : 1 ч. 59 м.
Битрейт : 111 бит/сек
ElementCount : 1743
Размер потока : 97,7 Кбайт (0%)
Заголовок : Комментарии режиссера и актеров
Язык : Russian
Default : Нет
Forced : Нет

Текст #8
Идентификатор : 20
Формат : UTF-8
Идентификатор кодека : S_TEXT/UTF8
Идентификатор кодека/Информация : UTF-8 Plain Text
Продолжительность : 1 ч. 59 м.
Битрейт : 60 бит/сек
ElementCount : 1599
Размер потока : 52,9 Кбайт (0%)
Заголовок : Комментарии режиссера
Язык : English
Default : Нет
Forced : Нет

Текст #9
Идентификатор : 21
Формат : UTF-8
Идентификатор кодека : S_TEXT/UTF8
Идентификатор кодека/Информация : UTF-8 Plain Text
Продолжительность : 1 ч. 59 м.
Битрейт : 71 бит/сек
ElementCount : 1716
Размер потока : 62,7 Кбайт (0%)
Заголовок : Комментарии режиссера и главного оператора
Язык : English
Default : Нет
Forced : Нет

Текст #10
Идентификатор : 22
Формат : UTF-8
Идентификатор кодека : S_TEXT/UTF8
Идентификатор кодека/Информация : UTF-8 Plain Text
Продолжительность : 1 ч. 59 м.
Битрейт : 64 бит/сек
ElementCount : 1746
Размер потока : 56,2 Кбайт (0%)
Заголовок : Комментарии режиссера и актеров
Язык : English
Default : Нет
Forced : Нет

Меню
00:00:00.000 : en:Kidnapped
00:05:58.941 : en:Private Cell
00:12:06.142 : en:Soon I'll Be Free
00:17:36.847 : en:In a Different Place
00:28:40.802 : en:Mido
00:33:57.410 : en:The Right Taste
00:42:37.054 : en:One Versus Many
00:47:36.603 : en:Evergreen
00:52:45.537 : en:Only 5 Days
01:00:59.781 : en:The Sign
01:12:36.685 : en:Soo-Ah
01:19:26.803 : en:Look Through the Window
01:29:10.303 : en:Bitter Truth
01:40:00.452 : en:Forgive Me
01:47:06.378 : en:Falling
01:57:36.215 : en:Closing Credits

pb.wtf



Скачать Олдбой через торрент http://i59.fastpic.ru/big/2015/0331/8a/bafa4d4999409aad4a85e7fe96017f8a.jpg Скачать фильм Олдбой через торрент бесплантно в хорошем качестве Описание: 1988 год. Обыкновенный и ничем не примечательный бизнесмен по имени О Дэ Су в день трёхлетия своей дочери по пути домой ... 8.3 10 4
Торрент: Зарегистрирован [2019-08-11 05:54] · скачан: 24 раз
Статус: √ проверено
Размер: 21.31 GB
Как cкачать? Как скачать Олдбой через торрент | qTorrent

28-11-2019 20:33  

Отключить всю рекламу на сайте

21-03-2020 08:49 Олдбой Скачать торрент  

Фільм не зайшов, 3/10pb.wtf



21-03-2020 12:03 Олдбой Скачать торрент  

смотрел его сто лет назад. мне тоже не зашел. помню, смотрел и ждал когда же будет интересно - так и не дождался(( не понимаю, почему оценки такие высокие, наверное я не догоняю высокое корейское искусствоpb.wtf



    Дорогой пользователь! Огромная просьба, поблагодарите релизера, оцените раздачу и оставьте свои комментарий, если Вы скачали Олдбой через торрент бесплатно! Внесите свою лепту в развитие PiratBit!
    Комментировать посты могут только пользователи прошедшие не сложную регистрацию
    Показать сообщения:    

    Олдбой через торрент
    Скачать бесплатно Олдбой
    Олдбой скачать торрент
    Олдбой смотреть онлайн
    Cкачать фильм Олдбой бесплатно
    Олдбой скачать торрент в хорошем качестве
    Олдбой смотреть онлайн бесплатно в хорошем качестве


    Вы не можете начинать темы
    Вы не можете отвечать на сообщения
    Вы не можете редактировать свои сообщения
    Вы не можете удалять свои сообщения
    Вы не можете голосовать в опросах
    Вы не можете прикреплять файлы к сообщениям
    Вы можете скачивать файлы