Ссылка на приватное зеркало всего за 1$. Внимание количество ограничено!!!

iTunes

1+1

iTunes

мы

WEB-DL

1

iTunes

Чернобыль

iTunes

Ральф против интернета

Лицензия

ПШазам

Лицензия

Оно 2

Лицензия

30
pack

Вам бонус

ВАЖНО

!!Акция!!

Alien_RageХит недели

RePack

Resident Evil 21

ИГРА 18+

pack

RePack

jed

!!Акция!!

Alien_Rage

RePack

fifa19

RePack

Assassins Creed: Odyssey

RePack

NEED FOR SPEED™ PAYBACK

3 сезон

9 сезон

Бесстыжие 9 сезон

Все сериалы

все сериалы на PB.wtf

RePack

FAR CRY 5
Ребята, катастрофически не хватает 1900р. для оплаты серверов за Октябрь (всвязи с блокировками трафик упал в 3 раза), 1-2р., выручайте.
  

Искаженный / Distorted (Роб В. Кинг) [2018, боевик, триллер, детектив, BDRip-AVC] MVO [HDRezka Studio] pb.wtf

Искаженный через торрент pb.wtf

Раздают: 2 [ 0 KB/s ]
Размер: 1.46 GB | Добавлен: 4 мес. 2 д. назад | Торрент скачан:90 раз
Скачать  

11-08-2019 07:00 Искаженный Скачать торрент  

Искаженный / Distorted«Don't fear the lies. Fear the truth»
Год выпуска: 2018
Страна: Канада
Жанр: боевик, триллер, детектив
Продолжительность: 01:26:18
Перевод: Профессиональный многоголосый | HDRezka Studio
Субтитры: Английские (полные, SDH)

Режиссер: Роб В. Кинг

rating

В ролях: Кристина Риччи, Джон Кьюсак, Брендан Флетчер, Виселос Реон Шеннон, Николь Энтони, Оливер Райс, Гиги Джекман, Майя Милькович, Бенжамин ДеУолт, Scott Olynek

Описание: В центре сюжета - художница с биполярным расстройством, недавно потерявшая ребёнка. Из-за тяжёлых воспоминаний она переезжает вместе с мужем из собственного дома в квартиру в многоэтажном здании, оснащённом супертехнологичной системой безопасности. Вскоре героиня замечает, что с другими жителями многоэтажки творится что-то неладное, и нанимает журналиста из отдела расследований.

Качество: BDRip-AVC
Формат: MKV

Видео: 1024x428 (2.40:1), 23,976 fps, x264 ~1 784 kbps avg, 0.170 bit/pixel
Аудио#1: 48 kHz, AC3 Dolby Digital, 2 (L,R) ch, ~192.00 kbps avg | RUS (HDRezka Studio)
Аудио#2: 48 kHz, AC3 Dolby Digital, 3/2 (L,C,R,l,r) + LFE ch, ~448.00 kbps avg | ENG
скриншот  скриншот  скриншот  скриншот  скриншот  

Общее
Уникальный идентификатор : 284898071143367712376778802479212681290 (0xD6555F64C41AF640B149B866B28A584A)
Полное имя : F:OlLanDGroupDistorted.2018.BDRip(AVC).OlLanDGroup.mkv
Формат : Matroska
Версия формата : Version 4 / Version 2
Размер файла : 1,46 Гбайт
Продолжительность : 1 ч. 26 м.
Общий поток : 2423 Кбит/сек
Название фильма : Distorted.2018 #TorpedoUK#
Дата кодирования : UTC 2018-10-04 15:48:44
Программа кодирования : mkvmerge v25.0.0 ('Prog Noir') 64-bit
Библиотека кодирования : libebml v1.3.6 + libmatroska v1.4.9

Видео
Идентификатор : 1
Формат : AVC
Формат/Информация : Advanced Video Codec
Профиль формата : High@L4.1
Параметр CABAC формата : Да
Параметр ReFrames формата : 10 кадров
Идентификатор кодека : V_MPEG4/ISO/AVC
Продолжительность : 1 ч. 26 м.
Битрейт : 1784 Кбит/сек
Ширина : 1024 пикселя
Высота : 428 пикселей
Соотношение сторон : 2,40:1
Режим частоты кадров : Постоянный
Частота кадров : 23,976 (24000/1001) кадра/сек
Цветовое пространство : YUV
Субдискретизация насыщенности : 4:2:0
Битовая глубина : 8 бит
Тип развёртки : Прогрессивная
Бит/(Пиксели*Кадры) : 0.170
Размер потока : 1,07 Гбайт (74%)
Библиотека кодирования : x264 core 146 r2538 121396c
Настройки программы : cabac=1 / ref=10 / deblock=1:-3:-3 / analyse=0x3:0x113 / me=umh / subme=11 / psy=1 / psy_rd=0.98:0.05 / mixed_ref=1 / me_range=48 / chroma_me=1 / trellis=2 / 8x8dct=1 / cqm=0 / deadzone=21,11 / fast_pskip=1 / chroma_qp_offset=-3 / threads=6 / lookahead_threads=1 / sliced_threads=0 / nr=0 / decimate=1 / interlaced=0 / bluray_compat=0 / constrained_intra=0 / bframes=10 / b_pyramid=2 / b_adapt=2 / b_bias=0 / direct=3 / weightb=1 / open_gop=0 / weightp=2 / keyint=240 / keyint_min=23 / scenecut=40 / intra_refresh=0 / rc_lookahead=40 / rc=2pass / mbtree=0 / bitrate=1784 / ratetol=1.0 / qcomp=0.60 / qpmin=0 / qpmax=69 / qpstep=4 / cplxblur=20.0 / qblur=0.5 / vbv_maxrate=50000 / vbv_bufsize=62500 / nal_hrd=none / filler=0 / ip_ratio=1.40 / pb_ratio=1.30 / aq=1:1.00
Язык : English
Default : Да
Forced : Нет

Аудио #1
Идентификатор : 2
Формат : AC-3
Формат/Информация : Audio Coding 3
Расширение режима : CM (complete main)
Параметр Endianness формата : Big
Идентификатор кодека : A_AC3
Продолжительность : 1 ч. 26 м.
Вид битрейта : Постоянный
Битрейт : 192 Кбит/сек
Каналы : 2 канала
Расположение каналов : Front: L R
Частота : 48,0 КГц
Частота кадров : 31,250 кадров/сек (1536 spf)
Битовая глубина : 16 бит
Метод сжатия : С потерями
Размер потока : 119 Мбайт (8%)
Заголовок : MVO [HDRezka Studio]
Язык : Russian
Default : Да
Forced : Нет

Аудио #2
Идентификатор : 3
Формат : AC-3
Формат/Информация : Audio Coding 3
Расширение режима : CM (complete main)
Параметр Endianness формата : Big
Идентификатор кодека : A_AC3
Продолжительность : 1 ч. 26 м.
Вид битрейта : Постоянный
Битрейт : 448 Кбит/сек
Каналы : 6 каналов
Расположение каналов : Front: L C R, Side: L R, LFE
Частота : 48,0 КГц
Частота кадров : 31,250 кадров/сек (1536 spf)
Битовая глубина : 16 бит
Метод сжатия : С потерями
Размер потока : 277 Мбайт (18%)
Заголовок : [Original]
Язык : English
Default : Нет
Forced : Нет

Текст #1
Идентификатор : 4
Формат : UTF-8
Идентификатор кодека : S_TEXT/UTF8
Идентификатор кодека/Информация : UTF-8 Plain Text
Продолжительность : 1 ч. 20 м.
Битрейт : 29 бит/сек
Count of elements : 503
Размер потока : 17,2 Кбайт (0%)
Заголовок : Full
Язык : English
Default : Нет
Forced : Нет

Текст #2
Идентификатор : 5
Формат : UTF-8
Идентификатор кодека : S_TEXT/UTF8
Идентификатор кодека/Информация : UTF-8 Plain Text
Продолжительность : 1 ч. 21 м.
Битрейт : 34 бит/сек
Count of elements : 690
Размер потока : 20,9 Кбайт (0%)
Заголовок : SDH
Язык : English
Default : Нет
Forced : Нет

Меню
00:00:00.000 : en:Chapter 1
00:04:53.960 : en:Chapter 2
00:10:40.139 : en:Chapter 3
00:20:39.947 : en:Chapter 4
00:29:38.943 : en:Chapter 5
00:39:55.351 : en:Chapter 6
00:51:01.516 : en:Chapter 7
01:00:42.180 : en:Chapter 8
01:10:00.571 : en:Chapter 9
01:15:00.287 : en:Chapter 10
01:19:52.871 : en:Chapter 11
01:22:16.514 : en:Chapter 12

pb.wtf



Скачать Искаженный через торрент http://i91.fastpic.ru/big/2018/1006/58/93c6924878671d30e735b211311c5d58.jpg Скачать фильм Искаженный через торрент бесплантно в хорошем качестве Описание: В центре сюжета - художница с биполярным расстройством, недавно потерявшая ребёнка. Из-за тяжёлых воспоминаний она переезжает ... 10 10 3
Торрент: Зарегистрирован [2019-08-11 07:00] · скачан: 90 раз
Статус: T временная
Размер: 1.46 GB
Как cкачать? Как скачать Искаженный через торрент | qTorrent

% Раздел Тема Автор DL S | L
T Фильмы (мультфильмы) cо спонсором показа (Новинки AVI/MKV) [ 3.49 GB ] Искаженный / Distorted [2018 WEB-DL 1080p] DUB [Line] bober100 Скачать
1 | 0
T Фильмы (мультфильмы) cо спонсором показа (Новинки AVI/MKV) [ 3.26 GB ] Искаженный / Distorted [2018 WEB-DL 720p] DUB [Line] bober100 Скачать
1 | 0
T Фильмы (мультфильмы) cо спонсором показа (Новинки AVI/MKV) [ 1.37 GB ] Искаженный / Distorted [2018 WEB-DLRip] DUB [Line] bober100 Скачать
1 | 0
T R.G. Resident & PiratVoice - Фильмы, Видео [ 1.37 GB ] Искаженный / Distorted [2018 WEB-DLRip от R.G. Resident] MVO [HDRezka Studio] -Lexx- Скачать
2 | 0
T Фильмы (WEB-DL 720p, 1080p) [ 2.77 GB ] Искаженный / Distorted [2018 WEB-DL 720p] MVO [HDRezka Studio] bober100 Скачать
1 | 0
T Фильмы (WEB-DL 720p, 1080p) [ 2.84 GB ] Искаженный / Distorted [2018 WEB-DL 1080p] MVO [HDRezka Studio] bober100 Скачать
1 | 0

28-11-2019 20:33  

Отключить всю рекламу на сайте

    Дорогой пользователь! Огромная просьба, поблагодарите релизера, оцените раздачу и оставьте свои комментарий, если Вы скачали Искаженный через торрент бесплатно! Внесите свою лепту в развитие PiratBit!
    Комментировать посты могут только пользователи прошедшие не сложную регистрацию
    Показать сообщения:    

    Искаженный через торрент
    Скачать бесплатно Искаженный
    Искаженный скачать торрент
    Искаженный смотреть онлайн
    Cкачать фильм Искаженный бесплатно
    Искаженный скачать торрент в хорошем качестве
    Искаженный смотреть онлайн бесплатно в хорошем качестве


    Вы не можете начинать темы
    Вы не можете отвечать на сообщения
    Вы не можете редактировать свои сообщения
    Вы не можете удалять свои сообщения
    Вы не можете голосовать в опросах
    Вы не можете прикреплять файлы к сообщениям
    Вы можете скачивать файлы