Ссылка на приватное зеркало нашего сайта всего за 1$. Внимание количество ограничено!!!

2 сезон

iTunes

1 сезон

1

2 сезон

2 сезон

iTunes

1 сезон

RePack

30

Новинка

ВАЖНО

ИГРА 18+

pack

RePack

MK11
pack

Забери бонус

RePack

jed

!!Акция!!

Alien_Rage

RePack

fifa19

RePack

Assassins Creed: Odyssey

RePack

NEED FOR SPEED™ PAYBACK

4 сезон

9 сезон

Бесстыжие 9 сезон

Все сериалы

все сериалы на PB.wtf

RePack

FAR CRY 5
  

Офелия / Ophelia (Клэр Маккарти / Claire McCarthy) [2018, Мелодрама, история, WEB-DL 1080p] [MVO] (СВ Студия) pb.wtf

Офелия через торрент pb.wtf

Размер: 6 GB | Добавлен: 1 год 4 мес. назад | Торрент скачан:63 раза
Скачать  

08-07-2019 06:50 Офелия Скачать торрент  

Офелия / Ophelia

Страна: Великобритания, США, Covert Media, Bert Marcus Productions, Bobker / Kruger Films
Жанр: Мелодрама, история
Год выпуска: 2018
Продолжительность: ~ 01:46:19

Перевод: Профессиональный (многоголосый закадровый) СВ Студия
Субтитры Английские
Оригинальная дорога Английский

Режиссёр: Клэр Маккарти / Claire McCarthy
В ролях: Дэйзи Ридли, Наоми Уоттс, Том Фелтон, Клайв Оуэн, Джордж МакКэй, Дэйзи Хэд, Себастьян де Соуса, Доминик Мафэм, Девон Террелл, Анна Раст

Описание: Темные времена настали в королевстве. Правитель мертв, а его трон занял самозванец и убийца. Гамлет, законный наследник престола, клянется отомстить за отца. Сердце принца способна смягчить лишь прекрасная Офелия. Ради него она готова оставить двор и пойти против тирана. Но cмогут ли их чувства преодолеть саму смерть?

rating
Сэмпл : http://multi-up.com/1236283

Качество: WEB-DL 1080p
Контейнер: MKV
Видео: 1920x800 (2.400), 23,967 fps, MPEG-4 AVC ~6800 kbps avg, 0.185 bit/pixel
Аудио#1: Русский, 48 kHz, AC3, 3/2 (L,C,R,l,r) + LFE ch, ~640 kbps avg |СВ Студия|
Аудио#2: Английский, 48 kHz, E-AC3, 3/2 (L,C,R,l,r) + LFE ch, ~640 kbps avg |Оригинал|
Субтитры: Английские, английские (SDH)
Реклама: Отсутствует
Формат                                   : Matroska
Версия формата : Version 4
Размер файла : 6,00 Гбайт
Продолжительность : 1 ч. 46 м.
Общий поток : 8084 Кбит/сек
Дата кодирования : UTC 2019-07-07 18:35:55
Программа кодирования : mkvmerge v27.0.0 ('Metropolis') 32-bit
Библиотека кодирования : libebml v1.3.6 + libmatroska v1.4.9

Видео
Идентификатор : 1
Формат : AVC
Формат/Информация : Advanced Video Codec
Профиль формата : High@L4
Настройки формата : CABAC / 4 Ref Frames
Параметр CABAC формата : Да
Параметр RefFrames формата : 4 кадра
Идентификатор кодека : V_MPEG4/ISO/AVC
Продолжительность : 1 ч. 46 м.
Вид битрейта : Постоянный
Битрейт : 6801 Кбит/сек
Номинальный битрейт : 10000 Кбит/сек
Ширина : 1920 пикселей
Высота : 800 пикселей
Соотношение сторон : 2,40:1
Режим частоты кадров : Постоянный
Частота кадров : 23,976 (24000/1001) кадра/сек
Цветовое пространство : YUV
Субдискретизация насыщенности : 4:2:0
Битовая глубина : 8 бит
Тип развёртки : Прогрессивная
Бит/(Пиксели*Кадры) : 0.185
Размер потока : 5,05 Гбайт (84%)
Default : Да
Forced : Нет
Цветовой диапазон : Limited
Основные цвета : BT.709
Характеристики трансфера : BT.709
Коэффициенты матрицы : BT.709

Аудио #1
Идентификатор : 2
Формат : AC-3
Формат/Информация : Audio Coding 3
Коммерческое название : Dolby Digital
Идентификатор кодека : A_AC3
Продолжительность : 1 ч. 46 м.
Вид битрейта : Постоянный
Битрейт : 640 Кбит/сек
Каналы : 6 каналов
Channel layout : L R C LFE Ls Rs
Частота : 48,0 КГц
Частота кадров : 31,250 кадров/сек (1536 SPF)
Битовая глубина : 16 бит
Метод сжатия : С потерями
Размер потока : 487 Мбайт (8%)
Язык : Russian
ServiceKind/String : Complete Main
Default : Да
Forced : Нет

Аудио #2
Идентификатор : 3
Формат : E-AC-3
Формат/Информация : Enhanced AC-3
Коммерческое название : Dolby Digital Plus
Идентификатор кодека : A_EAC3
Продолжительность : 1 ч. 46 м.
Вид битрейта : Постоянный
Битрейт : 640 Кбит/сек
Каналы : 6 каналов
Channel layout : L R C LFE Ls Rs
Частота : 48,0 КГц
Частота кадров : 31,250 кадров/сек (1536 SPF)
Метод сжатия : С потерями
Размер потока : 487 Мбайт (8%)
Язык : English
ServiceKind/String : Complete Main
Default : Нет
Forced : Нет

Текст #1
Идентификатор : 4
Формат : UTF-8
Идентификатор кодека : S_TEXT/UTF8
Идентификатор кодека/Информация : UTF-8 Plain Text
Продолжительность : 1 ч. 43 м.
Битрейт : 43 бит/сек
ElementCount : 1164
Размер потока : 33,3 Кбайт (0%)
Язык : English
Default : Нет
Forced : Нет

Текст #2
Идентификатор : 5
Формат : UTF-8
Идентификатор кодека : S_TEXT/UTF8
Идентификатор кодека/Информация : UTF-8 Plain Text
Продолжительность : 1 ч. 45 м.
Битрейт : 48 бит/сек
ElementCount : 1470
Размер потока : 37,9 Кбайт (0%)
Заголовок : SDH
Язык : English
Default : Нет
Forced : Нет
скриншот  скриншот  скриншот  
pb.wtf



Скачать Офелия через торрент https://i110.fastpic.ru/big/2019/0707/f1/ce18b7c1af7fe24dd3195d54bd371ef1.jpg Скачать фильм Офелия через торрент бесплантно в хорошем качестве Описание: Темные времена настали в королевстве. Правитель мертв, а его трон занял самозванец и убийца. Гамлет, законный наследник престола, ... 7.5 10 2
Торрент: Зарегистрирован [2019-07-08 06:50] · скачан: 63 раз
Статус: √ проверено
Размер: 6 GB
Как cкачать? Как скачать Офелия через торрент | qTorrent

% Раздел Тема Автор DL S | L
Фильмы 2018 [DVDrip, WEB-DLRip, HDrip] (DUB, MVO) [ 746 MB ] Офелия / Ophelia [2019 Мело история BDRip-AVC] - OlLanDGroup Skandar2019 Скачать
1 | 0
Фильмы 2018 [DVDrip, WEB-DLRip, HDrip] (DUB, MVO) [ 2.18 GB ] Офелия / Ophelia [2018 история BDRip ] PsYcho Скачать
1 | 0
Фильмы (WEB-DL 720p, 1080p) [ 5.81 GB ] Офелия / Ophelia [2018 история WEB-DL 1080p] bober100 Скачать
2 | 0
Фильмы (WEB-DL 720p, 1080p) [ 3.27 GB ] Офелия / Ophelia [2018 история WEB-DL 720p] bober100 Скачать
1 | 0
Фильмы 2018 [DVDrip, WEB-DLRip, HDrip] (DUB, MVO) [ 1.46 GB ] Офелия / Ophelia [2018 история WEB-DLRip] bober100 Скачать
1 | 0

28-11-2019 20:33  

Отключить всю рекламу на сайте

    Дорогой пользователь! Огромная просьба, поблагодарите релизера, оцените раздачу и оставьте свои комментарий, если Вы скачали Офелия через торрент бесплатно! Внесите свою лепту в развитие PiratBit!
    Комментировать посты могут только пользователи прошедшие не сложную регистрацию
    Показать сообщения:    

    Офелия через торрент
    Скачать бесплатно Офелия
    Офелия скачать торрент
    Офелия смотреть онлайн
    Cкачать фильм Офелия бесплатно
    Офелия скачать торрент в хорошем качестве
    Офелия смотреть онлайн бесплатно в хорошем качестве


    Вы не можете начинать темы
    Вы не можете отвечать на сообщения
    Вы не можете редактировать свои сообщения
    Вы не можете удалять свои сообщения
    Вы не можете голосовать в опросах
    Вы не можете прикреплять файлы к сообщениям
    Вы можете скачивать файлы