Ссылка на приватное зеркало всего за 1$. Внимание количество ограничено!!!

iTunes

iTunes

iTunes

1

iTunes

iTunes

iTunes

iTunes

iTunes

30
pack

Новость дня

ВАЖНО

!!Акция!!

Alien_RageХит недели

RePack

Resident Evil 21

ИГРА 18+

pack

RePack

jed

!!Акция!!

Alien_Rage

RePack

fifa19

RePack

Assassins Creed: Odyssey

RePack

NEED FOR SPEED™ PAYBACK

4 сезон

9 сезон

Бесстыжие 9 сезон

Все сериалы

все сериалы на PB.wtf

RePack

FAR CRY 5
  

Серебряный тренер (Виктор Ивченко) [1963, СССР, драма, SATRip от AVP Studio] pb.wtf

Серебряный тренер через торрент pb.wtf

Качают: 1 [ 0 KB/s ]
Размер: 1.09 GB | Добавлен: 9 мес. назад | Торрент скачан:9 раз
Скачать  

12-08-2019 09:12 Серебряный тренер Скачать торрент  

Серебряный тренер
Страна: СССР
Производство: Киностудия им. Довженко

Жанр: драма
Год выпуска: 1963
Продолжительность: 01:30:29

Перевод: Не требуется
Cубтитры: нет
Оригинальная аудиодорожка: русский

Режиссер: Виктор Ивченко

В ролях:
Михаил Кузнецов, Нинель Мышкова, Алефтина Евдокимова, Вячеслав Шалевич, Сергей Ляхницкий, Анатолий Соловьёв, Юнона Яковченко, Пётр Довгаль, Аркадий Гашинский, Г. Гаврикова...
Об актёрах подробней

Описание:
Еще в тридцатых годах Антон Лутенко вынужден был оставить Львов и искать преуспевания за границей. Во время войны погибла его жена, пропала без вести дочь Таня. За границей Антон нашел работу, о которой мечтал, стал известным тренером. Итальянка Джулия стала его импрессарио, другом и женой. Однажды Антону принесли советский журнал, на обложке которого была молодая гимнастка, мастер спорта Татьяна Лутенко. С командой итальянских гимнастов Антон летит в Киев. Впереди — волнующие дни счастливых переживаний и встреч…

Исходник: DVB
Качество видео: SATRip
Формат видео: AVI

Видео: 704x528 (4:3), 25,000 кадров/сек, XviD ~ 1519 kbps avg, 0.163 bit/pixel
Аудио: 48 kHz, Dolby Digital AC3 2.0, 192 kbps

Раздача от:
Общее
Полное имя : Serebryanyy.trener.1963.SATRip_[New-team]_by_AVP_Studio.avi
Формат : AVI
Формат/Информация : Audio Video Interleave
Размер файла : 1,09 Гбайт
Продолжительность : 1 ч. 30 м.
Общий поток : 1721 Кбит/сек
Программа кодирования : VirtualDubMod 1.5.10.3 | www.virtualdub-fr.org || (build 2550/release)
Библиотека кодирования : VirtualDubMod build 2550/release

Видео
Идентификатор : 0
Формат : MPEG-4 Visual
Профиль формата : Advanced Simple@L5
Настройки формата : BVOP1 / Custom Matrix
Параметр BVOP формата : 1
Параметр QPel формата : Нет
Параметр GMC формата : Без точки перехода
Параметр матрицы формата : Выборочная
Идентификатор кодека : XVID
Идентификатор кодека/Подсказка : XviD
Продолжительность : 1 ч. 30 м.
Битрейт : 1519 Кбит/сек
Ширина : 704 пикселя
Высота : 528 пикселей
Соотношение сторон : 4:3
Частота кадров : 25,000 кадров/сек
Цветовое пространство : YUV
Субдискретизация насыщенности : 4:2:0
Битовая глубина : 8 бит
Тип развёртки : Прогрессивная
Метод сжатия : С потерями
Бит/(Пиксели*Кадры) : 0.163
Размер потока : 985 Мбайт (88%)
Библиотека кодирования : XviD 73

Аудио
Идентификатор : 1
Формат : AC-3
Формат/Информация : Audio Coding 3
Коммерческое название : Dolby Digital
Идентификатор кодека : 2000
Продолжительность : 1 ч. 30 м.
Вид битрейта : Постоянный
Битрейт : 192 Кбит/сек
Каналы : 2 канала
ChannelLayout : L R
Частота : 48,0 КГц
Частота кадров : 31,250 кадров/сек (1536 SPF)
Битовая глубина : 16 бит
Метод сжатия : С потерями
Размер потока : 125 Мбайт (11%)
Выравнивание : Разделение по промежуткам
Продолжительность промежутка : 40 мс. (1,00 видеокадр)
Время предзагрузки промежутка : 500 мс.
pb.wtf



Скачать Серебряный тренер через торрент http://b.radikal.ru/b23/1912/05/4e1121893a84.png Скачать фильм Серебряный тренер через торрент бесплантно в хорошем качестве Описание:Еще в тридцатых годах Антон Лутенко вынужден был оставить Львов и искать преуспевания за границей. Во время войны погибла его ... 9 10 1
Торрент: Зарегистрирован [2019-08-12 09:12] · скачан: 9 раз
Статус: √ проверено
Размер: 1.09 GB
Как cкачать? Как скачать Серебряный тренер через торрент | qTorrent

% Раздел Тема Автор DL S | L
Кино СССР [ 1.09 GB ] Серебряный тренер [1963 СССР SATRip-AVC от AVP Studio] AVP Studio Скачать
1 | 0

28-11-2019 20:33  

Отключить всю рекламу на сайте

    Дорогой пользователь! Огромная просьба, поблагодарите релизера, оцените раздачу и оставьте свои комментарий, если Вы скачали Серебряный тренер через торрент бесплатно! Внесите свою лепту в развитие PiratBit!
    Комментировать посты могут только пользователи прошедшие не сложную регистрацию
    Показать сообщения:    

    Серебряный тренер через торрент
    Скачать бесплатно Серебряный тренер
    Серебряный тренер скачать торрент
    Серебряный тренер смотреть онлайн
    Cкачать фильм Серебряный тренер бесплатно
    Серебряный тренер скачать торрент в хорошем качестве
    Серебряный тренер смотреть онлайн бесплатно в хорошем качестве


    Вы не можете начинать темы
    Вы не можете отвечать на сообщения
    Вы не можете редактировать свои сообщения
    Вы не можете удалять свои сообщения
    Вы не можете голосовать в опросах
    Вы не можете прикреплять файлы к сообщениям
    Вы можете скачивать файлы