Всегда рабочее зеркало без VPN и Proxy просто перед .vidak.icu напиши любое слово или цифру, Пример http://fhl3.vidak.icu

MVO

2 сезон

1 сезон

1

1 сезон

iTunes

2 сезон

13

1 сезон

Deluxe

pack

Рекомендуем

Пиратка

30

ВАЖНО

RePack

MK11

RePack

jed

RePack

fifa19

RePack

RDR2

RePack

NEED FOR SPEED™ PAYBACK

Кинопоиск HD

6 сезон

 Острые козырьки 6 сезон

Все сериалы

все сериалы на PB.wtf

RePack

FAR CRY 5

Anonymous, нам критически не хватает 5601 руб. на оплату серверов и переферии за Апрель, помоги нам пожалуйста, вся надежда только на тебя. В благодарность мы отключим тебе всю рекламу на сайте!

×
  
Magnet ссылка

Железный человек 3 / Iron Man 3 (Шейн Блэк) [2013, фантастика, боевик, приключения, UHD BDRip 2160p] DUB (rus, ukr) [Лицензия] +AVO [Ю. Живов] pb.wtf

Железный человек 3 через торрент pb.wtf

Качают: 1 [ 0 KB/s ]
Размер: 13.89 GB | Добавлен: 2 года 9 мес. назад | Торрент скачан:22 раза
Смотреть онлайн Железный человек 3 | Скачать    Ребята, помогите собрать деньги на оплату серверов!!!

12-08-2019 20:49 Железный человек 3 Скачать торрент  

Железный человек 3 / Iron Man 3
Год выпуска: 2013
Страна: США, Китай
Жанр: фантастика, боевик, приключения
Продолжительность: 02:10:55
Перевод: Дублированный [Лицензия], Авторский (одноголосый, закадровый) (Ю.Живов)
Субтитры: Русские, английские, украинские

Режиссер: Шейн Блэк

rating

В ролях: Роберт Дауни мл., Гвинет Пэлтроу, Дон Чидл, Гай Пирс, Бен Кингсли, Ребекка Холл, Тай Симпкинс, Джеймс Бэдж Дэйл, Уильям Сэдлер, Стефани Зостак, Джон Фавро, Пол Беттани, Эшли Хэмилтон

Описание: Когда мир Старка рушится на его глазах по вине неизвестных противников, Тони жаждет найти виновных и свести с ними счеты. Оказавшись в безвыходной ситуации, Старк может рассчитывать только на себя и свою изобретательность, чтобы защитить тех, кто ему дорог. Это становится настоящим испытанием для героя, которому придется не только сражаться с коварным врагом, но и разобраться в себе, чтобы найти ответ на вопрос, который давно его тревожит: что важнее — человек или костюм?

Качество: UHD BDRip 2160p
Формат: MKV

Видео: HEVC HDR, 7741 Кбит/с, 3840x1600, 23.976 кадр/с
Аудио #1: 48 kHz, AC3, 6ch, ~640.00 kbps avg /RUS/ Дублированный
Аудио #2: 48 kHz, AC3, 6ch, ~640.00 kbps avg /RUS/ AVO Ю. Живов
Аудио #3: 48 kHz, AC3, 6ch, ~384.00 kbps avg /UKR/ Дублированный
Аудио #4: 48 kHz, TrueHD, 8ch, ~7887.00 kbps avg /ENG/ Оригинал
Аудио #5: 48 kHz, AC3, 6ch, ~640.00 kbps avg /ENG/ Оригинал
Аудио #6: 48 kHz, AC3, 2ch, ~192.00 kbps avg /ENG/ Оригинал
скриншот  скриншот  скриншот  

скриншот  скриншот  скриншот  

Complete name : E:\Movies\Iron.Man.3.2013.2160p.UHD.BluRay.X265-SHD13.mkv
Format : Matroska
Format version : Version 4
File size : 13.9 GiB
Duration : 2 h 10 min
Overall bit rate mode : Variable
Overall bit rate : 15.2 Mb/s
Movie name : Iron.Man.3.2013.2160p.UHD.BluRay.X265-SHD13
Encoded date : UTC 2019-08-12 14:51:22
Writing application : mkvmerge v36.0.0 ('Is That Jazz?') 64-bit
Writing library : libebml v1.3.9 + libmatroska v1.5.2
Attachments : poster.png

Video
ID : 1
Format : HEVC
Format/Info : High Efficiency Video Coding
Format profile : Main 10@L5.1@High
HDR format : SMPTE ST 2086, HDR10 compatible
Codec ID : V_MPEGH/ISO/HEVC
Duration : 2 h 10 min
Bit rate : 7 741 kb/s
Width : 3 840 pixels
Height : 1 600 pixels
Display aspect ratio : 2.40:1
Frame rate mode : Constant
Frame rate : 23.976 (24000/1001) FPS
Color space : YUV
Chroma subsampling : 4:2:0 (Type 2)
Bit depth : 10 bits
Bits/(Pixel*Frame) : 0.053
Stream size : 7.06 GiB (51%)
Title : Iron.Man.3.2013.2160p.UHD.BluRay.X265-SHD13
Writing library : x265 3.1+11-de920e0a3183:[Windows][MSVC 1900][64 bit] 10bit
Encoding settings : cpuid=1176575 / frame-threads=5 / numa-pools=36 / wpp / no-pmode / no-pme / no-psnr / no-ssim / log-level=2 / input-csp=1 / input-res=3840x1600 / interlace=0 / total-frames=187783 / level-idc=51 / high-tier=1 / uhd-bd=0 / ref=4 / no-allow-non-conformance / repeat-headers / annexb / aud / hrd / info / hash=0 / no-temporal-layers / no-open-gop / min-keyint=24 / keyint=240 / gop-lookahead=0 / bframes=4 / b-adapt=2 / b-pyramid / bframe-bias=0 / rc-lookahead=25 / lookahead-slices=4 / scenecut=40 / radl=0 / no-splice / no-intra-refresh / ctu=64 / min-cu-size=8 / rect / no-amp / max-tu-size=32 / tu-inter-depth=1 / tu-intra-depth=1 / limit-tu=0 / rdoq-level=2 / dynamic-rd=0.00 / no-ssim-rd / signhide / no-tskip / nr-intra=0 / nr-inter=0 / no-constrained-intra / no-strong-intra-smoothing / max-merge=3 / limit-refs=3 / limit-modes / me=2 / subme=3 / merange=57 / temporal-mvp / hme / Level / weightp / no-weightb / no-analyze-src-pics / deblock=-3:-3 / no-sao / no-sao-non-deblock / rd=4 / no-early-skip / rskip / no-fast-intra / no-tskip-fast / no-cu-lossless / no-b-intra / no-splitrd-skip / rdpenalty=0 / psy-rd=2.00 / psy-rdoq=1.00 / no-rd-refine / no-lossless / cbqpoffs=0 / crqpoffs=0 / rc=crf / crf=14.5 / qcomp=0.70 / qpstep=4 / stats-write=0 / stats-read=0 / vbv-maxrate=160000 / vbv-bufsize=160000 / vbv-init=0.9 / crf-max=0.0 / crf-min=0.0 / ipratio=1.40 / pbratio=1.30 / aq-mode=2 / aq-strength=1.00 / cutree / zone-count=0 / no-strict-cbr / qg-size=32 / no-rc-grain / qpmax=69 / qpmin=0 / no-const-vbv / sar=1 / overscan=0 / videoformat=5 / range=0 / colorprim=9 / transfer=16 / colormatrix=9 / chromaloc=1 / chromaloc-top=2 / chromaloc-bottom=2 / display-window=0 / master-display=G(13250,34500)B(7500,3000)R(34000,16000)WP(15635,16450)L(40000000,50)cll=572,565 / min-luma=0 / max-luma=1023 / log2-max-poc-lsb=8 / vui-timing-info / vui-hrd-info / slices=1 / no-opt-qp-pps / no-opt-ref-list-length-pps / no-multi-pass-opt-rps / scenecut-bias=0.05 / no-opt-cu-delta-qp / no-aq-motion / hdr / hdr-opt / no-dhdr10-opt / no-idr-recovery-sei / analysis-reuse-level=5 / scale-factor=0 / refine-intra=0 / refine-inter=0 / refine-mv=0 / refine-ctu-distortion=0 / no-limit-sao / ctu-info=0 / no-lowpass-dct / refine-analysis-type=0 / copy-pic=1 / max-ausize-factor=1.0 / no-dynamic-refine / no-single-sei / no-hevc-aq / no-svt / no-field / qp-adaptation-range=1.00
Language : Russian
Default : Yes
Forced : No
Color range : Limited
Color primaries : BT.2020
Transfer characteristics : PQ
Matrix coefficients : BT.2020 non-constant
Mastering display color pri : Display P3
Mastering display luminance : min: 0.0050 cd/m2, max: 4000 cd/m2
Maximum Content Light Level : 572 cd/m2
Maximum Frame-Average Light : 565 cd/m2

Audio #1
ID : 2
Format : AC-3
Format/Info : Audio Coding 3
Commercial name : Dolby Digital
Codec ID : A_AC3
Duration : 2 h 10 min
Bit rate mode : Constant
Bit rate : 640 kb/s
Channel(s) : 6 channels
Channel layout : L R C LFE Ls Rs
Sampling rate : 48.0 kHz
Frame rate : 31.250 FPS (1536 SPF)
Bit depth : 16 bits
Compression mode : Lossy
Stream size : 599 MiB (4%)
Title : Dub
Language : Russian
Service kind : Complete Main
Default : No
Forced : No

Audio #2
ID : 3
Format : AC-3
Format/Info : Audio Coding 3
Commercial name : Dolby Digital
Codec ID : A_AC3
Duration : 2 h 10 min
Bit rate mode : Constant
Bit rate : 640 kb/s
Channel(s) : 6 channels
Channel layout : L R C LFE Ls Rs
Sampling rate : 48.0 kHz
Frame rate : 31.250 FPS (1536 SPF)
Bit depth : 16 bits
Compression mode : Lossy
Stream size : 599 MiB (4%)
Title : AVO, Zhivov
Language : Russian
Service kind : Complete Main
Default : No
Forced : No

Audio #3
ID : 4
Format : AC-3
Format/Info : Audio Coding 3
Commercial name : Dolby Digital
Codec ID : A_AC3
Duration : 2 h 10 min
Bit rate mode : Constant
Bit rate : 384 kb/s
Channel(s) : 6 channels
Channel layout : L R C LFE Ls Rs
Sampling rate : 48.0 kHz
Frame rate : 31.250 FPS (1536 SPF)
Bit depth : 16 bits
Compression mode : Lossy
Stream size : 360 MiB (3%)
Title : Dub
Language : Ukrainian
Service kind : Complete Main
Default : No
Forced : No

Audio #4
ID : 5
Format : MLP FBA 16-ch
Format/Info : Meridian Lossless Packing FBA with 16-channel presentation
Commercial name : Dolby TrueHD with Dolby Atmos
Codec ID : A_TRUEHD
Duration : 2 h 10 min
Bit rate mode : Variable
Bit rate : 4 826 kb/s
Maximum bit rate : 7 887 kb/s
Channel(s) : 8 channels
Channel layout : L R C LFE Ls Rs Lb Rb
Sampling rate : 48.0 kHz
Frame rate : 1 200.000 FPS (40 SPF)
Compression mode : Lossless
Stream size : 4.40 GiB (32%)
Title : Atmos 7.1
Language : English
Default : Yes
Forced : No
Number of dynamic objects : 13
Bed channel count : 1 channel
Bed channel configuration : LFE

Audio #5
ID : 6
Format : AC-3
Format/Info : Audio Coding 3
Commercial name : Dolby Digital
Codec ID : A_AC3
Duration : 2 h 10 min
Bit rate mode : Constant
Bit rate : 640 kb/s
Channel(s) : 6 channels
Channel layout : L R C LFE Ls Rs
Sampling rate : 48.0 kHz
Frame rate : 31.250 FPS (1536 SPF)
Bit depth : 16 bits
Compression mode : Lossy
Stream size : 597 MiB (4%)
Title : 5.1
Language : English
Service kind : Complete Main
Default : No
Forced : No

Audio #6
ID : 7
Format : AC-3
Format/Info : Audio Coding 3
Commercial name : Dolby Digital
Codec ID : A_AC3
Duration : 2 h 10 min
Bit rate mode : Constant
Bit rate : 192 kb/s
Channel(s) : 2 channels
Channel layout : L R
Sampling rate : 48.0 kHz
Frame rate : 31.250 FPS (1536 SPF)
Bit depth : 16 bits
Compression mode : Lossy
Stream size : 179 MiB (1%)
Title : Commentary with Director and co-screenwriter Shane Black and co-screenwriter Drew Pearce
Language : English
Service kind : Complete Main
Default : No
Forced : No

Text #1
ID : 8
Format : UTF-8
Codec ID : S_TEXT/UTF8
Codec ID/Info : UTF-8 Plain Text
Duration : 2 h 10 min
Bit rate : 91 b/s
Count of elements : 1729
Stream size : 87.0 KiB (0%)
Title : Full
Language : Russian
Default : Yes
Forced : No

Text #2
ID : 9
Format : UTF-8
Codec ID : S_TEXT/UTF8
Codec ID/Info : UTF-8 Plain Text
Duration : 2 h 10 min
Bit rate : 97 b/s
Count of elements : 1780
Stream size : 93.3 KiB (0%)
Title : Full
Language : Ukrainian
Default : No
Forced : No

Text #3
ID : 10
Format : UTF-8
Codec ID : S_TEXT/UTF8
Codec ID/Info : UTF-8 Plain Text
Duration : 2 h 10 min
Bit rate : 62 b/s
Count of elements : 1813
Stream size : 59.9 KiB (0%)
Title : Full
Language : English
Default : No
Forced : No

Text #4
ID : 11
Format : UTF-8
Codec ID : S_TEXT/UTF8
Codec ID/Info : UTF-8 Plain Text
Duration : 2 h 10 min
Bit rate : 71 b/s
Count of elements : 2168
Stream size : 68.2 KiB (0%)
Title : SDH
Language : English
Default : No
Forced : No

Text #5
ID : 12
Format : PGS
Muxing mode : zlib
Codec ID : S_HDMV/PGS
Codec ID/Info : Picture based subtitle format used on BDs/HD-DVDs
Duration : 2 h 10 min
Bit rate : 53.2 kb/s
Count of elements : 4336
Stream size : 49.4 MiB (0%)
Title : SDH
Language : English
Default : No
Forced : No

Text #6
ID : 13
Format : PGS
Muxing mode : zlib
Codec ID : S_HDMV/PGS
Codec ID/Info : Picture based subtitle format used on BDs/HD-DVDs
Duration : 2 h 10 min
Bit rate : 76.1 kb/s
Count of elements : 4976
Stream size : 70.8 MiB (0%)
Title : Commentary with Director and co-screenwriter Shane Black and co-screenwriter Drew Pearce
Language : English
Default : No
Forced : No

Text #7
ID : 14
Format : PGS
Muxing mode : zlib
Codec ID : S_HDMV/PGS
Codec ID/Info : Picture based subtitle format used on BDs/HD-DVDs
Duration : 2 h 10 min
Bit rate : 34.7 kb/s
Count of elements : 3458
Stream size : 32.3 MiB (0%)
Title : Full-length
Language : Russian
Default : No
Forced : No

Text #8
ID : 15
Format : PGS
Muxing mode : zlib
Codec ID : S_HDMV/PGS
Codec ID/Info : Picture based subtitle format used on BDs/HD-DVDs
Duration : 2 h 10 min
Bit rate : 71.8 kb/s
Count of elements : 4846
Stream size : 66.9 MiB (0%)
Title : Commentary with Director and co-screenwriter Shane Black and co-screenwriter Drew Pearce
Language : Russian
Default : No
Forced : No

Text #9
ID : 16
Format : PGS
Muxing mode : zlib
Codec ID : S_HDMV/PGS
Codec ID/Info : Picture based subtitle format used on BDs/HD-DVDs
Duration : 2 h 10 min
Bit rate : 36.6 kb/s
Count of elements : 3560
Stream size : 34.1 MiB (0%)
Title : Full-length
Language : Ukrainian
Default : No
Forced : No

Menu
00:00:00.000 : en:Chapter 01
00:04:52.751 : en:Chapter 02
00:07:55.433 : en:Chapter 03
00:12:12.440 : en:Chapter 04
00:19:04.101 : en:Chapter 05
00:23:47.885 : en:Chapter 06
00:29:47.703 : en:Chapter 07
00:39:46.384 : en:Chapter 08
00:45:56.045 : en:Chapter 09
00:59:19.639 : en:Chapter 10
01:01:56.922 : en:Chapter 11
01:09:24.452 : en:Chapter 12
01:18:41.508 : en:Chapter 13
01:23:52.945 : en:Chapter 14
01:37:55.995 : en:Chapter 15
01:56:18.305 : en:Chapter 16
01:59:38.755 : en:Chapter 17

pb.wtf



Скачать Железный человек 3 через торрент http://s019.radikal.ru/i626/1710/4c/35b94af522b4.jpg Скачать, смотреть онлайн Железный человек 3 бесплантно в хорошем качестве Описание: Когда мир Старка рушится на его глазах по вине неизвестных противников, Тони жаждет найти виновных и свести с ними счеты. ... 10 10 3
Торрент: Зарегистрирован [2019-08-12 20:49] · скачан: 22 раз
Статус: √ проверено
Размер: 13.89 GB
Как cкачать? Как скачать Железный человек 3 через торрент | UTorrent

% Раздел Тема Автор DL S | L
Ultra HD (UHD: 2K, 4K, 8K) — видео сверхвысокой чёткости [ 68.28 GB ] Железный человек 3 / Iron Man 3 [2013 UHD BDRemux 2160p] DUB [] +AVO [Ю. Живов] bober100 Скачать
1 | 0
Фильмы с авторской озвучкой [ 1.46 GB ] Железный человек 3 / Iron Man 3 [2013 HDRip] [AVO] killermax2013 Скачать
1 | 0
Фильмы с авторской озвучкой [ 2.17 GB ] Железный человек 3 / Iron Man Three [2013 BDRip Авторский одноголосый "Ю.Живов"] coc900 Скачать
1 | 0
Фильмы 2013 [DVDrip, WEB-DLRip, HDrip] [ 2.18 GB ] Железный человек 3 / Iron Man 3 [ 2013 Китай BDRip-AVC лицензия] МАКС1 Скачать
1 | 0
Фильмы 2013 [DVDrip, WEB-DLRip, HDrip] [ 1.46 GB ] Железный человек 3 / Iron Man 3 [ 2013 Китай HDRip ] DUB [ лицензия ] Ворон Скачать
1 | 0
3D Фильмы [ 43.87 GB ] Железный человек 3 / Iron Man 3 [2013 Blu-ray 3D DUB] [ISO] / BD2D|3D Half OverUnder / Вертикальная анаморфная стереопара лисяра Скачать
1 | 0
3D Фильмы [ 6.69 GB ] Железный человек 3 / Iron Man 3 [2013 BDRip 1080p лицензия] Half OverUnder / Вертикальная анаморфная стереопара slaventi-69 Скачать
1 | 0

28-11-2019 20:33  

Отключить всю рекламу на сайте

    Дорогой пользователь! Огромная просьба, поблагодарите релизера, оцените раздачу и оставьте свои комментарий, если Вы скачали Железный человек 3 через торрент бесплатно!
    Комментировать посты могут только пользователи прошедшие не сложную регистрацию
    Показать сообщения:    

    Железный человек 3 через торрент
    Скачать бесплатно Железный человек 3
    Железный человек 3 скачать торрент
    Железный человек 3 смотреть онлайн
    Cкачать фильм Железный человек 3 бесплатно
    Железный человек 3 скачать торрент в хорошем качестве
    Железный человек 3 смотреть онлайн бесплатно в хорошем качестве


    Вы не можете начинать темы
    Вы не можете отвечать на сообщения
    Вы не можете редактировать свои сообщения
    Вы не можете удалять свои сообщения
    Вы не можете голосовать в опросах
    Вы не можете прикреплять файлы к сообщениям
    Вы можете скачивать файлы