новый адрес
Ссылка на приватное зеркало всего за 1$. Внимание количество ограничено!!!

iTunes

1+1

iTunes

мы

iTunes

1

iTunes

Чернобыль

iTunes

Ральф против интернета

Лицензия

ПШазам

Лицензия

Оно 2

Лицензия

30
pack

Вам бонус

ВАЖНО

!!Акция!!

Alien_RageХит недели

RePack

Resident Evil 21

ИГРА 18+

pack

RePack

jed

!!Акция!!

Alien_Rage

RePack

fifa19

RePack

Assassins Creed: Odyssey

RePack

NEED FOR SPEED™ PAYBACK

3 сезон

9 сезон

Бесстыжие 9 сезон

Все сериалы

все сериалы на PB.wtf

RePack

FAR CRY 5
Ребята, катастрофически не хватает 1900р. для оплаты серверов за Октябрь (всвязи с блокировками трафик упал в 3 раза), 1-2р., выручайте.
  

Потерянный рейс / United 93 (Пол Гринграсс) [2006, драма, история, триллер, BDRip 720p by msltel] DUB, DVO pb.wtf

Потерянный рейс через торрент pb.wtf

Размер: 4.73 GB | Добавлен: 3 мес. 24 д. назад | Торрент скачан:51 раз
Скачать  

13-08-2019 05:35 Потерянный рейс Скачать торрент  

Название: Потерянный рейс
Оригинальное название: United 93
Год выпуска: 2006
Страна: США, Великобритания, Франция
Жанр: драма, история, триллер
Продолжительность: 01:50:51
Перевод: дублированный, профессиональный двухголосый

Режиссер: Пол Гринграсс
В ролях: Дж.Дж. Джонсон, Гари Коммок, Полли Адамс, Опал Алладин, Старла Бенфорд, Триш Гейтс, Нэнси МакДониел, Дэвид Алан Баш, Ричард Бекинс, Сьюзэн Бломмаерт

О фильме: В фильме рассказывается история, случившаяся 11 сентября 2001 года с последним из четырёх самолетов, угнанных террористами в США. Картина в подробностях восстанавливает хронологию происшествий на борту рейса 93 авиакомпании «Юнайтед Эйрлайнс»...



Качество: BDRip 720p
Формат: MKV
Видео: MPEG-4 AVC, 4757 Кбит/с, 1280x544, 23.976 кадр/с
Аудио 1: русский, AC3, 448 kbps, 6 ch, 48 kHz [дублированный]
Аудио 2: русский, AC3, 448 kbps, 6 ch, 48 kHz [закадровый двухголосый, DDV]
Аудио 3: английский, AC3, 448 kbps, 6 ch, 48 kHz [оригинал]
Субтитры: английские
Главы/чаптеры
Общее
Уникальный идентификатор : 217759292397704978245213644239370273117 (0xA3D2EA0856977769B448467EFDED415D)
Полное имя : D:\Video\Потерянный рейс.2006.BDRip 720p by msltel.mkv
Формат : Matroska
Версия формата : Version 4
Размер файла : 4,73 Гбайт
Продолжительность : 1 ч. 50 м.
Общий поток : 6103 Кбит/сек
Название фильма : Rip by msltel
Дата кодирования : UTC 2019-08-12 14:26:48
Программа кодирования : mkvmerge v8.2.0 ('World of Adventure') 64bit
Библиотека кодирования : libebml v1.3.1 + libmatroska v1.4.2

Видео
Идентификатор : 1
Формат : AVC
Формат/Информация : Advanced Video Codec
Профиль формата : High@L4.1
Настройки формата : CABAC / 9 Ref Frames
Параметр CABAC формата : Да
Параметр RefFrames формата : 9 кадров
Идентификатор кодека : V_MPEG4/ISO/AVC
Продолжительность : 1 ч. 50 м.
Битрейт : 4757 Кбит/сек
Ширина : 1280 пикселей
Высота : 544 пикселя
Соотношение сторон : 2,35:1
Режим частоты кадров : Постоянный
Частота кадров : 23,976 (24000/1001) кадра/сек
Цветовое пространство : YUV
Субдискретизация насыщенности : 4:2:0
Битовая глубина : 8 бит
Тип развёртки : Прогрессивная
Бит/(Пиксели*Кадры) : 0.285
Размер потока : 3,68 Гбайт (78%)
Библиотека кодирования : x264 core 157 r2935 545de2f
Настройки программы : cabac=1 / ref=9 / deblock=1:-2:-2 / analyse=0x3:0x113 / me=umh / subme=11 / psy=1 / psy_rd=1.00:0.15 / mixed_ref=1 / me_range=32 / chroma_me=1 / trellis=2 / 8x8dct=1 / cqm=0 / deadzone=21,11 / fast_pskip=0 / chroma_qp_offset=-3 / threads=6 / lookahead_threads=1 / sliced_threads=0 / nr=0 / decimate=1 / interlaced=0 / bluray_compat=0 / constrained_intra=0 / bframes=9 / b_pyramid=2 / b_adapt=2 / b_bias=0 / direct=1 / weightb=1 / open_gop=0 / weightp=2 / keyint=230 / keyint_min=23 / scenecut=40 / intra_refresh=0 / rc_lookahead=40 / rc=crf / mbtree=1 / crf=18.7 / qcomp=0.60 / qpmin=0 / qpmax=69 / qpstep=4 / vbv_maxrate=50000 / vbv_bufsize=62500 / crf_max=0.0 / nal_hrd=none / filler=0 / ip_ratio=1.40 / aq=1:1.00
Язык : English
Default : Да
Forced : Нет

Аудио #1
Идентификатор : 2
Формат : AC-3
Формат/Информация : Audio Coding 3
Коммерческое название : Dolby Digital
Идентификатор кодека : A_AC3
Продолжительность : 1 ч. 50 м.
Вид битрейта : Постоянный
Битрейт : 448 Кбит/сек
Каналы : 6 каналов
ChannelLayout : L R C LFE Ls Rs
Частота : 48,0 КГц
Частота кадров : 31,250 кадров/сек (1536 SPF)
Битовая глубина : 16 бит
Метод сжатия : С потерями
Размер потока : 355 Мбайт (7%)
Заголовок : DUB
Язык : Russian
ServiceKind/String : Complete Main
Default : Да
Forced : Нет

Аудио #2
Идентификатор : 3
Формат : AC-3
Формат/Информация : Audio Coding 3
Коммерческое название : Dolby Digital
Идентификатор кодека : A_AC3
Продолжительность : 1 ч. 50 м.
Вид битрейта : Постоянный
Битрейт : 448 Кбит/сек
Каналы : 6 каналов
ChannelLayout : L R C LFE Ls Rs
Частота : 48,0 КГц
Частота кадров : 31,250 кадров/сек (1536 SPF)
Битовая глубина : 16 бит
Метод сжатия : С потерями
Размер потока : 355 Мбайт (7%)
Заголовок : DVO DDV
Язык : Russian
ServiceKind/String : Complete Main
Default : Нет
Forced : Нет

Аудио #3
Идентификатор : 4
Формат : AC-3
Формат/Информация : Audio Coding 3
Коммерческое название : Dolby Digital
Идентификатор кодека : A_AC3
Продолжительность : 1 ч. 50 м.
Вид битрейта : Постоянный
Битрейт : 448 Кбит/сек
Каналы : 6 каналов
ChannelLayout : L R C LFE Ls Rs
Частота : 48,0 КГц
Частота кадров : 31,250 кадров/сек (1536 SPF)
Битовая глубина : 16 бит
Метод сжатия : С потерями
Размер потока : 355 Мбайт (7%)
Заголовок : original
Язык : English
ServiceKind/String : Complete Main
Default : Нет
Forced : Нет

Текст
Идентификатор : 5
Формат : UTF-8
Идентификатор кодека : S_TEXT/UTF8
Идентификатор кодека/Информация : UTF-8 Plain Text
Продолжительность : 1 ч. 39 м.
Битрейт : 93 бит/сек
ElementCount : 1763
Размер потока : 68,0 Кбайт (0%)
Заголовок : английские
Язык : English
Default : Нет
Forced : Нет

Меню
00:00:00.000 : en:Chapter 1
00:05:11.185 : en:Chapter 2
00:09:22.853 : en:Chapter 3
00:15:31.430 : en:Chapter 4
00:20:06.914 : en:Chapter 5
00:25:41.998 : en:Chapter 6
00:29:28.183 : en:Chapter 7
00:35:20.076 : en:Chapter 8
00:39:56.143 : en:Chapter 9
00:46:13.437 : en:Chapter 10
00:51:13.195 : en:Chapter 11
00:55:27.032 : en:Chapter 12
01:00:26.623 : en:Chapter 13
01:04:24.861 : en:Chapter 14
01:10:56.669 : en:Chapter 15
01:15:06.418 : en:Chapter 16
01:20:05.592 : en:Chapter 17
01:25:23.284 : en:Chapter 18
01:34:39.048 : en:Chapter 19
01:42:24.012 : en:Chapter 20
01:50:50.393 : en:Chapter 21
pb.wtf



Скачать Потерянный рейс через торрент https://c.radikal.ru/c38/1908/18/a90ec34f4e56.png Скачать фильм Потерянный рейс через торрент бесплантно в хорошем качестве О фильме: В фильме рассказывается история, случившаяся 11 сентября 2001 года с последним из четырёх самолетов, угнанных террористами в США. ... 10 10 1
Торрент: Зарегистрирован [2019-08-13 05:35] · скачан: 51 раз
Статус: √ проверено
Размер: 4.73 GB
Как cкачать? Как скачать Потерянный рейс через торрент | qTorrent

% Раздел Тема Автор DL S | L
Фильмы [HD 720p, 1080p] (Хороший звук DUB, MVO) [ 11.16 GB ] Потерянный рейс / United 93 [2006 история BDRip 1080p by msltel] DUB DVO msltel Скачать
1 | 0
Фильмы 2006-2008 [ 2.18 GB ] Потерянный рейс / United 93 [2006 BDRip от HQCLUB] DUB Ворон Скачать
1 | 0
Фильмы (Blu-ray, BD-Remux, HDDVD) [ 27.21 GB ] Потерянный рейс / United 93 [2006 BD Remux +DVO] Ворон Скачать
1 | 0

28-11-2019 20:33  

Отключить всю рекламу на сайте

    Дорогой пользователь! Огромная просьба, поблагодарите релизера, оцените раздачу и оставьте свои комментарий, если Вы скачали Потерянный рейс через торрент бесплатно! Внесите свою лепту в развитие PiratBit!
    Комментировать посты могут только пользователи прошедшие не сложную регистрацию
    Показать сообщения:    

    Потерянный рейс через торрент
    Скачать бесплатно Потерянный рейс
    Потерянный рейс скачать торрент
    Потерянный рейс смотреть онлайн
    Cкачать фильм Потерянный рейс бесплатно
    Потерянный рейс скачать торрент в хорошем качестве
    Потерянный рейс смотреть онлайн бесплатно в хорошем качестве


    Вы не можете начинать темы
    Вы не можете отвечать на сообщения
    Вы не можете редактировать свои сообщения
    Вы не можете удалять свои сообщения
    Вы не можете голосовать в опросах
    Вы не можете прикреплять файлы к сообщениям
    Вы можете скачивать файлы