новый адрес
Ссылка на приватное зеркало всего за 1$. Внимание количество ограничено!!!

iTunes

1+1

iTunes

мы

WEB-DL

1

iTunes

Чернобыль

iTunes

Ральф против интернета

Лицензия

ПШазам

Лицензия

Оно 2

Лицензия

30
pack

Вам бонус

ВАЖНО

!!Акция!!

Alien_RageХит недели

RePack

Resident Evil 21

ИГРА 18+

pack

RePack

jed

!!Акция!!

Alien_Rage

RePack

fifa19

RePack

Assassins Creed: Odyssey

RePack

NEED FOR SPEED™ PAYBACK

3 сезон

9 сезон

Бесстыжие 9 сезон

Все сериалы

все сериалы на PB.wtf

RePack

FAR CRY 5
Ребята, катастрофически не хватает 1900р. для оплаты серверов за Октябрь (всвязи с блокировками трафик упал в 3 раза), 1-2р., выручайте.
  

Годзилла 2: Король монстров / Godzilla: King of the Monsters (Майкл Догерти) [2019, фантастика, фэнтези, боевик, приключения, WEB-DLRip-AVC] DUB [iTunes] - ExKinoRay pb.wtf

Годзилла 2: Король монстров через торрент pb.wtf

Раздают: 34 [ 0 KB/s ]
Размер: 2.82 GB | Добавлен: 3 мес. 28 д. назад | Торрент скачан:941 раз
Скачать  

13-08-2019 23:25 Годзилла 2: Король монстров Скачать торрент  

Информация о фильме
Название: Годзилла 2: Король монстров
Оригинальное название: Godzilla: King of the Monsters
Год выхода: 2019
Жанр: фантастика, фэнтези, боевик, приключения
Режиссер: Майкл Догерти
В ролях: Кайл Чандлер, Вера Фармига, Милли Бобби Браун, Кэн Ватанабэ, Цзыи Чжан, Брэдли Уитфорд, Салли Хокинс, Чарльз Дэнс, Томас Миддлдитч, Аиша Хайндс, О`Ши Джексон мл., Дэвид Стрэтэйрн, Энтони Рамос, Элизабет Ладлоу, Джонатан Ховард, Си Си Эйч Паундер, Джо Мортон, Тайлер Крумли, Келли Гарнер

О фильме:
История рассказывает о героических усилиях криптозоологического агентства «Монарх» по сдерживанию гигантских монстров. В этот раз против могучего Годзиллы выступают Мотра, Родан и ультимативный кайдзю - трёхголовый монстр Кинг Гидора. Когда эти древние суперхищники, со временем превратившиеся в полузабытые мифы, восстают снова, чтобы сойтись в схватке, человечеству остаётся отойти в сторонку и постараться не погибнуть.


rating

Страна: США, Япония
Студия: Warner Bros., Legendary Entertainment, Toho Company
Продолжительность: 02:11:41
Перевод: Дубляж [iTunes]

Файл
Качество: WEB-DLRip-AVC
Видео: MPEG-4 AVC, 2102 Kбит/с, 1024x426, 23.976 кадр/с
Аудио #01: 48 kHz, AC3, 5.1, 384 Kbps | iTunes | RUS |
Аудио #02: 48 kHz, AC3, 2.0, 192 Kbps | iTunes | UKR
Аудио #03: 48 kHz, AC3, 5.1, 384 Kbps | Оригинал | ENG |
Субтитры: Русские (Forced, full), украинские (Forced), английские
General
Unique ID : 251942759679636262552579380088868238020 (0xBD8A69176FA5C4248014BFE8DE4CF2C4)
Complete name : D:\Godzilla.King.of.the.Monsters.2019.WEB-DLRip.AVC.ExKinoRay.mkv
Format : Matroska
Format version : Version 2
File size : 2.82 GiB
Duration : 2 h 11 min
Overall bit rate : 3 064 kb/s
Movie name : Godzilla.King.of.the.Monsters 2019.1080p from ExKinoRay
Encoded date : UTC 2019-08-13 22:44:30
Writing application : mkvmerge v5.6.0 ('Kenya Kane') built on May 27 2012 16:44:04
Writing library : libebml v1.2.3 + libmatroska v1.3.0

Video
ID : 1
Format : AVC
Format/Info : Advanced Video Codec
Format profile : High@L4.1
Format settings, CABAC : Yes
Format settings, ReFrames : 11 frames
Codec ID : V_MPEG4/ISO/AVC
Duration : 2 h 11 min
Bit rate : 2 102 kb/s
Width : 1 024 pixels
Height : 426 pixels
Display aspect ratio : 2.40:1
Frame rate mode : Constant
Frame rate : 23.976 (23976/1000) FPS
Color space : YUV
Chroma subsampling : 4:2:0
Bit depth : 8 bits
Scan type : Progressive
Bits/(Pixel*Frame) : 0.201
Stream size : 1.88 GiB (67%)
Title : Enigma
Writing library : x264 core 152 r2851 ba24899
Encoding settings : cabac=1 / ref=11 / deblock=1:-3:-2 / analyse=0x3:0x113 / me=umh / subme=10 / psy=1 / psy_rd=1.05:0.10 / mixed_ref=1 / me_range=32 / chroma_me=1 / trellis=2 / 8x8dct=1 / cqm=0 / deadzone=21,11 / fast_pskip=0 / chroma_qp_offset=-3 / threads=12 / lookahead_threads=2 / sliced_threads=0 / nr=0 / decimate=0 / interlaced=0 / bluray_compat=0 / constrained_intra=0 / bframes=9 / b_pyramid=2 / b_adapt=2 / b_bias=0 / direct=3 / weightb=1 / open_gop=0 / weightp=2 / keyint=240 / keyint_min=23 / scenecut=40 / intra_refresh=0 / rc=2pass / mbtree=0 / bitrate=2102 / ratetol=1.0 / qcomp=0.60 / qpmin=0 / qpmax=51 / qpstep=4 / cplxblur=20.0 / qblur=0.5 / ip_ratio=1.30 / pb_ratio=1.20 / aq=1:1.00
Language : English
Default : Yes
Forced : No
Color range : Limited
Color primaries : BT.709
Transfer characteristics : BT.709
Matrix coefficients : BT.709

Audio #1
ID : 2
Format : AC-3
Format/Info : Audio Coding 3
Mode extension : CM (complete main)
Format settings, Endianness : Big
Codec ID : A_AC3
Duration : 2 h 11 min
Bit rate mode : Constant
Bit rate : 384 kb/s
Channel(s) : 6 channels
Channel positions : Front: L C R, Side: L R, LFE
Sampling rate : 48.0 kHz
Frame rate : 31.250 FPS (1536 spf)
Compression mode : Lossy
Stream size : 362 MiB (13%)
Title : iTunes
Language : Russian
Default : Yes
Forced : No

Audio #2
ID : 3
Format : AC-3
Format/Info : Audio Coding 3
Mode extension : CM (complete main)
Format settings, Endianness : Big
Codec ID : A_AC3
Duration : 2 h 11 min
Bit rate mode : Constant
Bit rate : 192 kb/s
Channel(s) : 2 channels
Channel positions : Front: L R
Sampling rate : 48.0 kHz
Frame rate : 31.250 FPS (1536 spf)
Compression mode : Lossy
Stream size : 181 MiB (6%)
Title : iTunes
Language : Ukrainian
Default : No
Forced : No

Audio #3
ID : 4
Format : AC-3
Format/Info : Audio Coding 3
Mode extension : CM (complete main)
Format settings, Endianness : Big
Codec ID : A_AC3
Duration : 2 h 11 min
Bit rate mode : Constant
Bit rate : 384 kb/s
Channel(s) : 6 channels
Channel positions : Front: L C R, Side: L R, LFE
Sampling rate : 48.0 kHz
Frame rate : 31.250 FPS (1536 spf)
Compression mode : Lossy
Stream size : 362 MiB (13%)
Language : English
Default : No
Forced : No

Text #1
ID : 5
Format : UTF-8
Codec ID : S_TEXT/UTF8
Codec ID/Info : UTF-8 Plain Text
Title : Forced
Language : Russian
Default : Yes
Forced : No

Text #2
ID : 6
Format : UTF-8
Codec ID : S_TEXT/UTF8
Codec ID/Info : UTF-8 Plain Text
Title : Full
Language : Russian
Default : No
Forced : No

Text #3
ID : 7
Format : UTF-8
Codec ID : S_TEXT/UTF8
Codec ID/Info : UTF-8 Plain Text
Language : Ukrainian
Default : No
Forced : No

Text #4
ID : 8
Format : UTF-8
Codec ID : S_TEXT/UTF8
Codec ID/Info : UTF-8 Plain Text
Language : English
Default : No
Forced : No

Text #5
ID : 9
Format : UTF-8
Codec ID : S_TEXT/UTF8
Codec ID/Info : UTF-8 Plain Text
Title : SDH
Language : English
Default : No
Forced : No

Menu
00:00:00.000 : en:1
00:10:52.902 : en:2
00:18:05.834 : en:3
00:30:26.324 : en:4
00:45:17.631 : en:5
00:54:10.038 : en:6
01:05:40.645 : en:7
01:09:30.583 : en:8
01:19:30.307 : en:9
01:30:05.233 : en:10
01:38:35.868 : en:11
01:49:57.883 : en:12
01:59:27.826 : en:13


Релиз от:

Автор релиза: pb.wtf



Скачать Годзилла 2: Король монстров через торрент https://img15.lostpic.net/2019/08/13/90492b9a17971ec7b4b2f7cabc87f97c.jpg Скачать фильм Годзилла 2: Король монстров через торрент бесплантно в хорошем качестве О фильме: История рассказывает о героических усилиях криптозоологического агентства «Монарх» по сдерживанию гигантских монстров. В этот ... 9.8 10 22
Info! Золотая раздача, скачанное не засчитывается.
Торрент: Зарегистрирован [2019-08-13 23:25] · скачан: 941 раз
Статус: √ проверено
Размер: 2.82 GB
Как cкачать? Как скачать Годзилла 2: Король монстров через торрент | qTorrent

% Раздел Тема Автор DL S | L
Фильмы 2019 [DVDrip, WEB-DLRip, HDrip] (DUB, MVO) [ 3.38 GB ] Годзилла 2: Король монстров / Godzilla: King of the Monsters [2019 BDRip-AVC] DUB [] - ExKinoRay Enigma2010 Скачать
14 | 0

28-11-2019 20:33  

Отключить всю рекламу на сайте

26-09-2019 17:23 Годзилла 2: Король монстров Скачать торрент  

спецэффекты на высоте, но кинцо таксе...pb.wtf



    Дорогой пользователь! Огромная просьба, поблагодарите релизера, оцените раздачу и оставьте свои комментарий, если Вы скачали Годзилла 2: Король монстров через торрент бесплатно! Внесите свою лепту в развитие PiratBit!
    Комментировать посты могут только пользователи прошедшие не сложную регистрацию
    Показать сообщения:    

    Годзилла 2: Король монстров через торрент
    Скачать бесплатно Годзилла 2: Король монстров
    Годзилла 2: Король монстров скачать торрент
    Годзилла 2: Король монстров смотреть онлайн
    Cкачать фильм Годзилла 2: Король монстров бесплатно
    Годзилла 2: Король монстров скачать торрент в хорошем качестве
    Годзилла 2: Король монстров смотреть онлайн бесплатно в хорошем качестве


    Вы не можете начинать темы
    Вы не можете отвечать на сообщения
    Вы не можете редактировать свои сообщения
    Вы не можете удалять свои сообщения
    Вы не можете голосовать в опросах
    Вы не можете прикреплять файлы к сообщениям
    Вы можете скачивать файлы