новый адрес
Мега распродажа FORZA HORIZON 4 ULTIMATE+ВСЕ DLC+ОНЛАЙН всего за 499р. 349 руб. (супер цена). Внимание количество ограничено!!!

iTunes

1+1

iTunes

мы

iTunes

1

iTunes

Чернобыль

iTunes

Ральф против интернета

Лицензия

ПШазам

Лицензия

Игра престолов

Лицензия

30
pack

ВАЖНО

!!Акция!!

Alien_RageХит недели

RePack

Resident Evil 21

ИГРА 18+

pack

RePack

Metro:Exodus

!!Акция!!

Alien_Rage

RePack

fifa19

RePack

Assassins Creed: Odyssey

RePack

NEED FOR SPEED™ PAYBACK

3 сезон

9 сезон

Бесстыжие 9 сезон

Все сериалы

все сериалы на PB.wtf

RePack

FAR CRY 5
Ребята, катастрофически не хватает 1900р. для оплаты серверов за Октябрь (всвязи с блокировками трафик упал в 3 раза), 1-2р., выручайте.
  

Выше неба (Оксана Карас) [2019, Драма, мелодрама, детектив, WEB-DLRip] [iTunes] pb.wtf

Выше неба через торрент pb.wtf

Раздают: 4 [ 0 KB/s ]
Размер: 1.46 GB | Добавлен: 3 мес. 2 д. назад | Торрент скачан:103 раза
Скачать  

14-08-2019 19:42 Выше неба Скачать торрент  

Выше неба Год выпуска: 2019
Страна: Россия
Жанр: Драма, мелодрама, детектив
Продолжительность: 01:43:39 | iTunes
Субтитры: отсутствуют

Режиссер: Оксана Карас



В ролях: Таисия Вилкова, Филипп Авдеев, Полина Виторган, Дарья Жовнер, Виктория Толстоганова, Алексей Агранович, Артем Немов, Анастасия Богатырева, Ирина Денисова, Валентин Самохин и др.

Описание: Молодая девушка проводит лето на загородном курорте под бдительным присмотром матери. Там её внимание привлекает парень, прошлое которого окутано тайной. Девушка не догадывается, что после этой встречи её жизнь изменится навсегда, а чувствам будет суждено взлететь выше неба…

Качество: WEB-DLRip
Формат: AVI

Видео: Xvid 73, 720x304, ~1619 kbps, 24,000 fps
Аудио: русский, AC3, 5.1 ch, 48 kHz, 384 kbps
скриншот  скриншот  скриншот  скриншот  скриншот  

Общее
Полное имя : E:Torrent2VysheNebaWEBDLRip.avi
Формат : AVI
Формат/Информация : Audio Video Interleave
Профиль формата : OpenDML
Размер файла : 1,46 Гбайт
Продолжительность : 1 ч. 43 м.
Общий поток : 2015 Кбит/сек
Программа кодирования : XviD4PSP 6.0 / 53.6.0

Видео
Идентификатор : 0
Формат : MPEG-4 Visual
Профиль формата : Advanced Simple@L5
Настройки формата : BVOP1 / Custom Matrix
Параметр BVOP формата : 1
Параметр QPel формата : Нет
Параметр GMC формата : Без точки перехода
Параметр матрицы формата : Выборочная
Идентификатор кодека : XVID
Идентификатор кодека/Подсказка : XviD
Продолжительность : 1 ч. 43 м.
Битрейт : 1619 Кбит/сек
Ширина : 720 пикселей
Высота : 304 пикселя
Соотношение сторон : 2,35:1
Частота кадров : 24,000 кадра/сек
Цветовое пространство : YUV
Субдискретизация насыщенности : 4:2:0
Битовая глубина : 8 бит
Тип развёртки : Прогрессивная
Метод сжатия : С потерями
Бит/(Пиксели*Кадры) : 0.308
Размер потока : 1,17 Гбайт (80%)
Библиотека кодирования : XviD 73

Аудио
Идентификатор : 1
Формат : AC-3
Формат/Информация : Audio Coding 3
Параметр Endianness формата : Big
Идентификатор кодека : 2000
Продолжительность : 1 ч. 43 м.
Вид битрейта : Постоянный
Битрейт : 384 Кбит/сек
Каналы : 6 каналов
Расположение каналов : Front: L C R, Side: L R, LFE
Частота : 48,0 КГц
Частота кадров : 31,250 кадров/сек (1536 SPF)
Битовая глубина : 16 бит
Метод сжатия : С потерями
Размер потока : 285 Мбайт (19%)
Выравнивание : Соединение по промежуткам
Продолжительность промежутка : 32 мс. (0,77 видеокадр)
Заголовок : rus

pb.wtf



Скачать Выше неба через торрент http://lostpix.com/thumbs/2019-08/14/edk2y82n1kaindsv7xa0c7ks2.png Скачать фильм Выше неба через торрент бесплантно в хорошем качестве Описание: Молодая девушка проводит лето на загородном курорте под бдительным присмотром матери. Там её внимание привлекает парень, прошлое ... 10 10 10
Торрент: Зарегистрирован [2019-08-14 19:42] · скачан: 103 раз
Статус: √ проверено
Размер: 1.46 GB
Как cкачать? Как скачать Выше неба через торрент | qTorrent

% Раздел Тема Автор DL S | L
Наши новые фильмы 2018-2019 [ 746 MB ] Выше неба [2019 WEB-DLRip] bober100 Скачать
1 | 0
Наши новые фильмы 2018-2019 [ 1.81 GB ] Выше неба [2019 WEB-DLRip-AVC] - ExKinoRay Enigma2010 Скачать
17 | 0
Наши фильмы (HD, WEB-DL 720p, 1080p) [ 3.6 GB ] Выше неба [2019 WEB-DL 1080p] bober100 Скачать
1 | 0
Наши новые фильмы 2012 [ 2.06 GB ] Выше неба / Вышэй за неба [2012 HDTVRip] [Режиссерская версия] bober100 Скачать
2 | 0
Наши сериалы [ 3.03 GB ] Выше неба /Телевизионная версия / 1-8 серии из 8 / Вышэй за неба [2012 Беларусь WEBRip Original] кэп Скачать
1 | 0
Фильмы 2012 [ 2.19 GB ] Выше неба / Вышэй за неба [2012 Беларусь HDTVRip] [Режиссерская версия] -=Cherry=- Скачать
1 | 0
Фильмы 2012 [ 1.43 GB ] Выше неба / Вышэй за неба [2012 DVDRip Оригинал] Яйцеслав Скачать
1 | 0


>> Регистрируемся здесь <<






Отзывы и комментарии о схеме читаем и пишем здесь: ---> Отзывы и комментарии о схеме

Новые благодарочки в телеграм довольных пользователей:
скриншот   скриншот   скриншот   скриншот   скриншот
    Дорогой пользователь! Огромная просьба, поблагодарите релизера, оцените раздачу и оставьте свои комментарий, если Вы скачали Выше неба через торрент бесплатно! Внесите свою лепту в развитие PiratBit!
    Комментировать посты могут только пользователи прошедшие не сложную регистрацию
    Показать сообщения:    

    Выше неба через торрент
    Скачать бесплатно Выше неба
    Выше неба скачать торрент
    Выше неба смотреть онлайн
    Cкачать фильм Выше неба бесплатно
    Выше неба скачать торрент в хорошем качестве
    Выше неба смотреть онлайн бесплатно в хорошем качестве


    Вы не можете начинать темы
    Вы не можете отвечать на сообщения
    Вы не можете редактировать свои сообщения
    Вы не можете удалять свои сообщения
    Вы не можете голосовать в опросах
    Вы не можете прикреплять файлы к сообщениям
    Вы можете скачивать файлы