Ссылка на приватное зеркало всего за 1$. Внимание количество ограничено!!!

iTunes

1+1

iTunes

мы

WEB-DL

1

iTunes

Чернобыль

iTunes

Ральф против интернета

Лицензия

ПШазам

Лицензия

Оно 2

Лицензия

30
pack

Вам бонус

ВАЖНО

!!Акция!!

Alien_RageХит недели

RePack

Resident Evil 21

ИГРА 18+

pack

RePack

jed

!!Акция!!

Alien_Rage

RePack

fifa19

RePack

Assassins Creed: Odyssey

RePack

NEED FOR SPEED™ PAYBACK

3 сезон

9 сезон

Бесстыжие 9 сезон

Все сериалы

все сериалы на PB.wtf

RePack

FAR CRY 5
Ребята, катастрофически не хватает 1900р. для оплаты серверов за Октябрь (всвязи с блокировками трафик упал в 3 раза), 1-2р., выручайте.
  

Выше неба (Оксана Карас) [2019, Драма, мелодрама, детектив, WEB-DLRip-AVC] [iTunes] - ExKinoRay pb.wtf

Выше неба через торрент pb.wtf

Раздают: 10 [ 0 KB/s ]
Размер: 1.81 GB | Добавлен: 3 мес. 29 д. назад | Торрент скачан:213 раз
Скачать  

15-08-2019 02:44 Выше неба Скачать торрент  

Название: Выше неба
Год выхода: 2019
Жанр: Драма, мелодрама, детектив
Страна: Россия

Перевод: Не требуется
Продолжительность: 01:43:39

Режиссер: Оксана Карас
В ролях: Таисия Вилкова, Филипп Авдеев, Полина Виторган, Дарья Жовнер, Виктория Толстоганова, Алексей Агранович, Артем Немов, Анастасия Богатырева, Ирина Денисова, Валентин Самохин

О фильме: Молодая девушка проводит лето на загородном курорте под бдительным присмотром матери. Там её внимание привлекает парень, прошлое которого окутано тайной. Девушка не догадывается, что после этой встречи её жизнь изменится навсегда, а чувствам будет суждено взлететь выше неба…



Формат: MKV
Качество: WEB-DLRip-AVC
Видео: MPEG-4 AVC, 2113 Kбит/с, 1024x434, 24.000 кадр/с
Аудио #01: 48 kHz, AC3, 5.1, 384 Kbps | iTunes | RUS |
x264 [info]: frame I:900 Avg QP:16.77 size: 70148
x264 [info]: frame P:38765 Avg QP:19.75 size: 21788
x264 [info]: frame B:109590 Avg QP:20.93 size: 6697
---------------------------------------------------------------
General
Unique ID : 209223694392320411959828788568640602283 (0x9D67048F3B6F0F48AF0383985E3640AB)
Complete name : D:\VysheNeba.2019.AVC.ExKinoRay.mkv
Format : Matroska
Format version : Version 2
File size : 1.81 GiB
Duration : 1 h 43 min
Overall bit rate : 2 498 kb/s
Movie name : Выше неба 2019 from ExKinoRay
Encoded date : UTC 2019-08-15 02:18:23
Writing application : mkvmerge v5.6.0 ('Kenya Kane') built on May 27 2012 16:44:04
Writing library : libebml v1.2.3 + libmatroska v1.3.0

Video
ID : 1
Format : AVC
Format/Info : Advanced Video Codec
Format profile : High@L4.1
Format settings, CABAC : Yes
Format settings, ReFrames : 11 frames
Codec ID : V_MPEG4/ISO/AVC
Duration : 1 h 43 min
Bit rate : 2 113 kb/s
Width : 1 024 pixels
Height : 434 pixels
Display aspect ratio : 2.35:1
Frame rate mode : Constant
Frame rate : 24.000 FPS
Color space : YUV
Chroma subsampling : 4:2:0
Bit depth : 8 bits
Scan type : Progressive
Bits/(Pixel*Frame) : 0.198
Stream size : 1.49 GiB (83%)
Title : Enigma
Writing library : x264 core 152 r2851 ba24899
Encoding settings : cabac=1 / ref=11 / deblock=1:-2:-2 / analyse=0x3:0x113 / me=umh / subme=10 / psy=1 / psy_rd=1.05:0.10 / mixed_ref=1 / me_range=32 / chroma_me=1 / trellis=2 / 8x8dct=1 / cqm=0 / deadzone=21,11 / fast_pskip=0 / chroma_qp_offset=-3 / threads=12 / lookahead_threads=2 / sliced_threads=0 / nr=0 / decimate=0 / interlaced=0 / bluray_compat=0 / constrained_intra=0 / bframes=9 / b_pyramid=2 / b_adapt=2 / b_bias=0 / direct=3 / weightb=1 / open_gop=0 / weightp=2 / keyint=240 / keyint_min=24 / scenecut=40 / intra_refresh=0 / rc=2pass / mbtree=0 / bitrate=2113 / ratetol=1.0 / qcomp=0.60 / qpmin=0 / qpmax=51 / qpstep=4 / cplxblur=20.0 / qblur=0.5 / ip_ratio=1.30 / pb_ratio=1.20 / aq=1:1.00
Language : English
Default : Yes
Forced : No
Color range : Limited
Color primaries : BT.709
Transfer characteristics : BT.709
Matrix coefficients : BT.709

Audio
ID : 2
Format : AC-3
Format/Info : Audio Coding 3
Mode extension : CM (complete main)
Format settings, Endianness : Big
Codec ID : A_AC3
Duration : 1 h 43 min
Bit rate mode : Constant
Bit rate : 384 kb/s
Channel(s) : 6 channels
Channel positions : Front: L C R, Side: L R, LFE
Sampling rate : 48.0 kHz
Frame rate : 31.250 FPS (1536 spf)
Compression mode : Lossy
Stream size : 285 MiB (15%)
Title : iTunes
Language : Russian
Default : Yes
Forced : No

Menu
00:00:00.000 : ru:Глава 1
00:08:15.958 : ru:Глава 2
00:16:31.333 : ru:Глава 3
00:24:33.499 : ru:Глава 4
00:32:57.582 : ru:Глава 5
00:41:07.498 : ru:Глава 6
00:49:27.831 : ru:Глава 7
00:58:08.914 : ru:Глава 8
01:06:21.539 : ru:Глава 9
01:14:43.122 : ru:Глава 10
01:23:50.955 : ru:Глава 11
01:32:05.205 : ru:Глава 12


Релиз от:

Автор релиза: pb.wtf



Скачать Выше неба через торрент https://b.radikal.ru/b04/1908/ab/dafb0fd39091.jpg Скачать фильм Выше неба через торрент бесплантно в хорошем качестве О фильме: Молодая девушка проводит лето на загородном курорте под бдительным присмотром матери. Там её внимание привлекает парень, прошлое ... 10 10 4
Info! Золотая раздача, скачанное не засчитывается.
Торрент: Зарегистрирован [2019-08-15 02:44] · скачан: 213 раз
Статус: √ проверено
Размер: 1.81 GB
Как cкачать? Как скачать Выше неба через торрент | qTorrent

28-11-2019 20:33  

Отключить всю рекламу на сайте

    Дорогой пользователь! Огромная просьба, поблагодарите релизера, оцените раздачу и оставьте свои комментарий, если Вы скачали Выше неба через торрент бесплатно! Внесите свою лепту в развитие PiratBit!
    Комментировать посты могут только пользователи прошедшие не сложную регистрацию
    Показать сообщения:    

    Выше неба через торрент
    Скачать бесплатно Выше неба
    Выше неба скачать торрент
    Выше неба смотреть онлайн
    Cкачать фильм Выше неба бесплатно
    Выше неба скачать торрент в хорошем качестве
    Выше неба смотреть онлайн бесплатно в хорошем качестве


    Вы не можете начинать темы
    Вы не можете отвечать на сообщения
    Вы не можете редактировать свои сообщения
    Вы не можете удалять свои сообщения
    Вы не можете голосовать в опросах
    Вы не можете прикреплять файлы к сообщениям
    Вы можете скачивать файлы