Всегда рабочее зеркало без VPN и Proxy просто перед .vidak.icu напиши любое слово или цифру, Пример http://p77c.vidak.icu

Лицензия

MVO

1 сезон

1

1 сезон

iTunes

1 сезон

13

1 сезон

Deluxe

pack

Рекомендуем

Repack

30

ВАЖНО

RePack

MK11

RePack

jed

RePack

fifa19

RePack

RDR2

RePack

NEED FOR SPEED™ PAYBACK

Кинопоиск HD

6 сезон

 Острые козырьки 6 сезон

Все сериалы

все сериалы на PB.wtf

RePack

FAR CRY 5
  
Magnet ссылка

007: Искры из глаз / The Living Daylights (Джон Глен) [1987, Боевик, триллер, приключения, UHD WEB-DL 2160p] DUB+MVO+DVO+3xAVO pb.wtf

007: Искры из глаз через торрент pb.wtf

Размер: 22.47 GB | Добавлен: 2 года 11 мес. назад | Торрент скачан:19 раз
Смотреть онлайн 007: Искры из глаз | Скачать    Ребята, помогите собрать деньги на оплату серверов!!!

15-08-2019 05:07 007: Искры из глаз Скачать торрент  

007: Искры из глаз / The Living Daylights
Год выпуска: 1987
Страна: США
Жанр: Боевик, триллер, приключения
Продолжительность: 02:10:52
Перевод: Дублированный, профессиональный многоголосый, профессиональный двухголосый, авторский
Субтитры: Русские (полные), Английские (full, SDH)

Режиссер: Джон Глен

rating

В ролях: Тимоти Далтон, Мэриам д’Або, Йерун Краббе, Джо Дон Бейкер, Джон Рис-Дэвис, Арт Малик, Андреас Висневски, Томас Уитли, Дезмонд Льюэлин, Роберт Браун, Джефри Кин, Уолтер Готелл, Кэролин Блисс, Джон Терри, Вирджиния Хей, Джон Боуи, Джули Т. Уоллес, Келл Тайлер, Кэтрин Рэбетт, Надим Савалха, Алан Тэлбот, Карл Ригг, Тони Сайрус, Атик Мухамед, Майкл Мур, Кен Шэррок, Питер Портиес, Энтони Кэррик, Фредерик Уордер, Глин Бейкер, Дерек Хоксби, Билл Уэстон, Ричард Кубисон, Хайнц Винтер, Лесли Френч, Одетт Бенатар, Дианна Касале, Шарон Дэвлин, Феми Гардинер

Описание: Экранизация одноименного рассказа Яна Флеминга. Коллеги Джеймса Бонда по нелёгкому супершпионскому ремеслу всё чаще начинают появляться на экране... На сей раз это агенты 002 и 004 - вместе с 007 они проводят тренировку на военной базе. Всё идёт в рабочем порядке и с переменным успехом, охрана постреливает в "засветившихся" красной краской, но внезапно и охранники и агенты начинают оказываться во вполне настоящей крови - на базу проник агент КГБ! От разъярённого Бонда ему, конечно, живым не уйти, но с этого всё только начинается... Теперь ему надлежит прибыть в Чехословакию и обеспечить безопасность побега генерала КГБ на Запад. Бонд, конечно же, проводит операцию на "отлично". И, хотя в самый ответственный момент в дело неожиданно пытается вмешаться женщина - в неё у 007 послать пулю просто не поднимается рука, даже если талантливая виолончелистка ещё вдруг окажется и небесталанным снайпером. Агенты КГБ, однако, пытаются достать беглеца и в Великобритании, а Бонду очень хочется узнать, кто же на самом деле эта, столь успешно сочетающая гений и злодейство, виолончелистка Кара Милови? Для этого надо пройти через множество невероятных приключений и провокаций, настоящих и фальшивых спектаклей с состязаниями то в хитрости, то в стрельбе, и даже малость поучаствовать в Афганской войне. Но в итоге правое дело в мужественном лице Бонда, как водится, побеждает, предателю воздастся по заслугам, и неожиданно выясняется, что музыке подвластны все, независимо от того, по чью они сторону на линии невидимого фронта...

Качество: UHD WEB-DL 2160p
Формат: MKV

Видео: HEVC, SDR, 15.0 Мбит/с, 3840x2160, 23.976 Кадр/с, 10 Бит - by DEFLATE
Аудио #1: Русский (DTS, 6 ch, 768 Кбит/с) Профессиональный (полное дублирование) | BD EUR
Аудио #2: Русский (DTS, 6 ch, 1509 Кбит/с) | [MVO] Киномания
Аудио #3: Русский ( DTS, 6 ch, 755 Кбит/с ) | [DVO] НТВ
Аудио #4: Русский (DTS, 6 ch, 1509 Кбит/с) | [VO] Ю.Живов
Аудио #5: Русский (DTS, 6 ch, 1509 Кбит/с) | [VO] В.Горчаков
Аудио #6: Русский ( AC3, 2 ch, 192 Кбит/с ) | [VO] Л.Володарский
Аудио #7: Английский (DTS-HD MA, 6 ch, 2706 Кбит/с)
Аудио #8: Английский (AC3, ch 6, 640 Кбит/c)
скриншот  скриншот  скриншот  

скриншот  скриншот  скриншот  

General
Complete name : 007-The.Living.Daylights.1987.UHD.WEB-DL.SDR.2160p.HEVC.mkv
Format : Matroska
Format version : Version 4
File size : 22.5 GiB
Duration : 2 h 11 min
Overall bit rate mode : Variable
Overall bit rate : 24.6 Mb/s
Movie name : The Living Daylights (1987) UHD WEB-DL 2160p x265 SDR -KZ
Encoded date : UTC 2019-08-14 10:19:12
Writing application : mkvmerge v35.0.0 ('All The Love In The World') 64-bit
Writing library : libebml v1.3.9 + libmatroska v1.5.2

Video
ID : 1
Format : HEVC
Format/Info : High Efficiency Video Coding
Format profile : Main [email protected]@Main
Codec ID : V_MPEGH/ISO/HEVC
Duration : 2 h 10 min
Bit rate : 15.0 Mb/s
Width : 3 840 pixels
Height : 2 160 pixels
Display aspect ratio : 16:9
Frame rate mode : Constant
Frame rate : 23.976 (23976/1000) FPS
Color space : YUV
Chroma subsampling : 4:2:0
Bit depth : 10 bits
Bits/(Pixel*Frame) : 0.075
Stream size : 13.7 GiB (61%)
Title : The.Living.Daylights.1987.UHD.WEB-DL.2160p.x265.SDR -DEFLATE
Default : Yes
Forced : No
Color range : Limited
Color primaries : BT.709
Transfer characteristics : BT.709
Matrix coefficients : BT.709

Audio #1
ID : 2
Format : DTS
Format/Info : Digital Theater Systems
Codec ID : A_DTS
Duration : 2 h 11 min
Bit rate mode : Constant
Bit rate : 768 kb/s
Channel(s) : 6 channels
Channel layout : C L R Ls Rs LFE
Sampling rate : 48.0 kHz
Frame rate : 93.750 FPS (512 SPF)
Bit depth : 24 bits
Compression mode : Lossy
Stream size : 720 MiB (3%)
Title : Dub
Language : Russian
Default : Yes
Forced : No

Audio #2
ID : 3
Format : DTS
Format/Info : Digital Theater Systems
Codec ID : A_DTS
Duration : 2 h 11 min
Bit rate mode : Constant
Bit rate : 1 509 kb/s
Channel(s) : 6 channels
Channel layout : C L R Ls Rs LFE
Sampling rate : 48.0 kHz
Frame rate : 93.750 FPS (512 SPF)
Bit depth : 24 bits
Compression mode : Lossy
Stream size : 1.38 GiB (6%)
Title : [MVO] Киномания
Language : Russian
Default : No
Forced : No

Audio #3
ID : 4
Format : DTS
Format/Info : Digital Theater Systems
Codec ID : A_DTS
Duration : 2 h 11 min
Bit rate mode : Constant
Bit rate : 755 kb/s
Channel(s) : 6 channels
Channel layout : C L R Ls Rs LFE
Sampling rate : 48.0 kHz
Frame rate : 93.750 FPS (512 SPF)
Bit depth : 24 bits
Compression mode : Lossy
Stream size : 707 MiB (3%)
Title : [DVO] НТВ
Language : Russian
Default : No
Forced : No

Audio #4
ID : 5
Format : DTS
Format/Info : Digital Theater Systems
Codec ID : A_DTS
Duration : 2 h 11 min
Bit rate mode : Constant
Bit rate : 1 509 kb/s
Channel(s) : 6 channels
Channel layout : C L R Ls Rs LFE
Sampling rate : 48.0 kHz
Frame rate : 93.750 FPS (512 SPF)
Bit depth : 24 bits
Compression mode : Lossy
Stream size : 1.38 GiB (6%)
Title : [VO] Ю.Живов
Language : Russian
Default : No
Forced : No

Audio #5
ID : 6
Format : DTS
Format/Info : Digital Theater Systems
Codec ID : A_DTS
Duration : 2 h 11 min
Bit rate mode : Constant
Bit rate : 1 509 kb/s
Channel(s) : 6 channels
Channel layout : C L R Ls Rs LFE
Sampling rate : 48.0 kHz
Frame rate : 93.750 FPS (512 SPF)
Bit depth : 24 bits
Compression mode : Lossy
Stream size : 1.38 GiB (6%)
Title : [VO] В.Горчаков
Language : Russian
Default : No
Forced : No

Audio #6
ID : 7
Format : AC-3
Format/Info : Audio Coding 3
Commercial name : Dolby Digital
Codec ID : A_AC3
Duration : 2 h 11 min
Bit rate mode : Constant
Bit rate : 192 kb/s
Channel(s) : 2 channels
Channel layout : L R
Sampling rate : 48.0 kHz
Frame rate : 31.250 FPS (1536 SPF)
Bit depth : 16 bits
Compression mode : Lossy
Stream size : 180 MiB (1%)
Title : [VO] Л.Володарский
Language : Russian
Service kind : Complete Main
Default : No
Forced : No

Audio #7
ID : 8
Format : DTS XLL
Format/Info : Digital Theater Systems
Commercial name : DTS-HD Master Audio
Codec ID : A_DTS
Duration : 2 h 11 min
Bit rate mode : Variable
Bit rate : 2 706 kb/s
Channel(s) : 6 channels
Channel layout : C L R Ls Rs LFE
Sampling rate : 48.0 kHz
Frame rate : 93.750 FPS (512 SPF)
Bit depth : 24 bits
Compression mode : Lossless
Stream size : 2.48 GiB (11%)
Title : DTS-HD MA
Language : English
Default : No
Forced : No

Audio #8
ID : 9
Format : AC-3
Format/Info : Audio Coding 3
Commercial name : Dolby Digital
Codec ID : A_AC3
Duration : 2 h 11 min
Bit rate mode : Constant
Bit rate : 640 kb/s
Channel(s) : 6 channels
Channel layout : L R C LFE Ls Rs
Sampling rate : 48.0 kHz
Frame rate : 31.250 FPS (1536 SPF)
Bit depth : 16 bits
Compression mode : Lossy
Stream size : 600 MiB (3%)
Title : AC3[email protected]
Language : English
Service kind : Complete Main
Default : No
Forced : No

Text #1
ID : 10
Format : UTF-8
Codec ID : S_TEXT/UTF8
Codec ID/Info : UTF-8 Plain Text
Duration : 2 h 7 min
Bit rate : 53 b/s
Count of elements : 744
Stream size : 49.6 KiB (0%)
Title : full
Language : Russian
Default : Yes
Forced : No

Text #2
ID : 11
Format : UTF-8
Codec ID : S_TEXT/UTF8
Codec ID/Info : UTF-8 Plain Text
Duration : 2 h 9 min
Bit rate : 33 b/s
Count of elements : 841
Stream size : 31.4 KiB (0%)
Title : full
Language : English
Default : No
Forced : No

Text #3
ID : 12
Format : UTF-8
Codec ID : S_TEXT/UTF8
Codec ID/Info : UTF-8 Plain Text
Duration : 2 h 9 min
Bit rate : 34 b/s
Count of elements : 922
Stream size : 33.1 KiB (0%)
Title : SDH
Language : English
Default : No
Forced : No

Text #4
ID : 13
Format : UTF-8
Codec ID : S_TEXT/UTF8
Codec ID/Info : UTF-8 Plain Text
Duration : 2 h 7 min
Bit rate : 31 b/s
Count of elements : 895
Stream size : 29.4 KiB (0%)
Title : full 2
Language : English
Default : No
Forced : No

Menu
00:00:00.000 : en:Chapter 01
00:07:32.744 : en:Chapter 02
00:10:18.743 : en:Chapter 03
00:14:02.216 : en:Chapter 04
00:17:02.647 : en:Chapter 05
00:22:20.256 : en:Chapter 06
00:28:12.941 : en:Chapter 07
00:31:43.151 : en:Chapter 08
00:35:58.323 : en:Chapter 09
00:39:38.209 : en:Chapter 10
00:42:27.587 : en:Chapter 11
00:44:54.150 : en:Chapter 12
00:50:40.955 : en:Chapter 13
00:57:12.054 : en:Chapter 14
00:59:02.247 : en:Chapter 15
01:02:31.164 : en:Chapter 16
01:07:36.219 : en:Chapter 17
01:12:42.358 : en:Chapter 18
01:17:39.655 : en:Chapter 19
01:20:26.822 : en:Chapter 20
01:24:18.345 : en:Chapter 21
01:28:53.703 : en:Chapter 22
01:33:16.174 : en:Chapter 23
01:37:04.068 : en:Chapter 24
01:42:21.177 : en:Chapter 25
01:49:25.267 : en:Chapter 26
01:52:04.468 : en:Chapter 27
01:56:52.631 : en:Chapter 28
01:58:35.608 : en:Chapter 29
02:00:45.780 : en:Chapter 30
02:05:31.733 : en:Chapter 31
02:08:13.394 : en:Chapter 32

pb.wtf



Скачать 007: Искры из глаз через торрент http://img.lostpic.net/orig_images/c/c/6/cc60edd5162b81699e740f008348272e.jpg Скачать, смотреть онлайн 007: Искры из глаз бесплантно в хорошем качестве Описание: Экранизация одноименного рассказа Яна Флеминга. Коллеги Джеймса Бонда по нелёгкому супершпионскому ремеслу всё чаще начинают ... 10 10 4
Торрент: Зарегистрирован [2019-08-15 05:07] · скачан: 19 раз
Статус: √ проверено
Размер: 22.47 GB
Как cкачать? Как скачать 007: Искры из глаз через торрент | UTorrent

28-11-2019 20:33  

Отключить вcю реклaмy на сайте

    Дорогой пользователь! Огромная просьба, поблагодарите релизера, оцените раздачу и оставьте свои комментарий, если Вы скачали 007: Искры из глаз через торрент бесплатно!
    Комментировать посты могут только пользователи прошедшие не сложную регистрацию
    Показать сообщения:    

    007: Искры из глаз через торрент
    Скачать бесплатно 007: Искры из глаз
    007: Искры из глаз скачать торрент
    007: Искры из глаз смотреть онлайн
    Cкачать фильм 007: Искры из глаз бесплатно
    007: Искры из глаз скачать торрент в хорошем качестве
    007: Искры из глаз смотреть онлайн бесплатно в хорошем качестве


    Вы не можете начинать темы
    Вы не можете отвечать на сообщения
    Вы не можете редактировать свои сообщения
    Вы не можете удалять свои сообщения
    Вы не можете голосовать в опросах
    Вы не можете прикреплять файлы к сообщениям
    Вы можете скачивать файлы